(Classical) Kurt Atterberg - Piano Concerto and Violin Concerto (Dan Franklin Smith, Christian Bergqvist, Gavle Symphony, B. Tommy Andersson) - 1999, FLAC (tracks+.cue) lossless


Статистика раздачи [Обновить пиров]
Размер:  302 MB   |    Зарегистрирован:  8 месяцев 21 день   |    Скачан:  0 раз

Полного источника не было: Никогда

Личеров:  9  [  0 KB/s  ]   Подробная статистика пиров
 
   
 
 
 

[Цитировать]

Kurt Atterberg - Piano Concerto and Violin Concerto (Dan Franklin Smith, Christian Bergqvist, Gavle Symphony, B. Tommy Andersson)
Жанр: Classical
Год издания диска: 1999
Издатель (лейбл): Sterling
Номер по каталогу:
Дата записи:
Аудиокодек: FLAC
Тип рипа: tracks+.cue
Битрейт аудио: lossless
Продолжительность: 01:11:29
Источник: скачано из сети
Наличие сканов в содержимом раздачи: да
Исполнители:
Dan Franklin Smith - piano, Christian Bergqvist - violin
Gavle Symphony
B. Tommy Andersson
Треклист:
Piano Concerto in B flat minor, Op. 37
1. 1. Pesante allegro
2. 2. Andante - attaca -
3. 3. Furioso
Violin Concerto in E minor, Op. 7
4. 1. Moderato
5. 2. Adagio cantabile
6. 3. Allegro molto

LOG EAC

Exact Audio Copy V1.0 beta 3 from 29. August 2011
EAC extraction logfile from 28. April 2014, 19:55
Gävle Symphony Orchestra, B. Tommy Anderson / Piano Concerto and Violin Concerto
Used drive : Optiarc DVD RW AD-7280S Adapter: 2 ID: 1
Read mode : Secure
Utilize accurate stream : Yes
Defeat audio cache : Yes
Make use of C2 pointers : No
Read offset correction : 48
Overread into Lead-In and Lead-Out : No
Fill up missing offset samples with silence : Yes
Delete leading and trailing silent blocks : No
Null samples used in CRC calculations : Yes
Used interface : Native Win32 interface for Win NT & 2000
Gap handling : Appended to previous track
Used output format : User Defined Encoder
Selected bitrate : 1024 kBit/s
Quality : High
Add ID3 tag : No
Command line compressor : C:\Program Files (x86)\Exact Audio Copy\Flac\flac.exe
Additional command line options : -8 -V -T "ARTIST=%artist%" -T "TITLE=%title%" -T "ALBUM=%albumtitle%" -T "DATE=%year%" -T "TRACKNUMBER=%tracknr%" -T "GENRE=%genre%" -T "PERFORMER=%albuminterpret%" -T "COMPOSER=%composer%" -T "ALBUMARTIST=%albumartist%" -T "DISCNUMBER=%cdnumber%" -T "TOTALDISCS=%totalcds%" -T "TOTALTRACKS=%numtracks%" -T "COMMENT=%comment%" %source% -o %dest%
TOC of the extracted CD
Track | Start | Length | Start sector | End sector
---------------------------------------------------------
1 | 0:00.00 | 12:30.17 | 0 | 56266
2 | 12:30.17 | 12:25.15 | 56267 | 112156
3 | 24:55.32 | 9:26.20 | 112157 | 154626
4 | 34:21.52 | 13:27.45 | 154627 | 215196
5 | 47:49.22 | 8:55.48 | 215197 | 255369
6 | 56:44.70 | 14:44.35 | 255370 | 321704
Track 1
Filename E:\Rips\01 - Piano Concerto in B flat minor, Op. 37 - I. Pesante allegro.wav
Pre-gap length 0:00:02.00
Peak level 89.0 %
Extraction speed 5.8 X
Track quality 100.0 %
Test CRC DEC919AC
Copy CRC DEC919AC
Accurately ripped (confidence 3) [99E653E0] (AR v2)
Copy OK
Track 2
Filename E:\Rips\02 - Piano Concerto in B flat minor, Op. 37 - II. Andante.wav
Pre-gap length 0:00:03.16
Peak level 85.6 %
Extraction speed 7.2 X
Track quality 100.0 %
Test CRC 45B44CFD
Copy CRC 45B44CFD
Accurately ripped (confidence 2) [DAAC8DCF] (AR v2)
Copy OK
Track 3
Filename E:\Rips\03 - Piano Concerto in B flat minor, Op. 37 - III. Furioso.wav
Peak level 90.4 %
Extraction speed 8.0 X
Track quality 100.0 %
Test CRC 1D6DD521
Copy CRC 1D6DD521
Accurately ripped (confidence 3) [C381D7C8] (AR v2)
Copy OK
Track 4
Filename E:\Rips\04 - Violin Concerto in E minor, Op. 7 - I. Moderato.wav
Pre-gap length 0:00:09.93
Peak level 78.8 %
Extraction speed 9.1 X
Track quality 100.0 %
Test CRC 90480326
Copy CRC 90480326
Accurately ripped (confidence 3) [E0BA0421] (AR v2)
Copy OK
Track 5
Filename E:\Rips\05 - Violin Concerto in E minor, Op. 7 - II. Adagio camabile.wav
Pre-gap length 0:00:04.33
Peak level 47.5 %
Extraction speed 9.6 X
Track quality 100.0 %
Test CRC A6F47030
Copy CRC A6F47030
Accurately ripped (confidence 3) [5009162E] (AR v2)
Copy OK
Track 6
Filename E:\Rips\06 - Violin Concerto in E minor, Op. 7 - III. Allegro molto.wav
Pre-gap length 0:00:02.53
Peak level 80.5 %
Extraction speed 9.4 X
Track quality 99.9 %
Test CRC AE724B00
Copy CRC AE724B00
Accurately ripped (confidence 3) [083065AC] (AR v2)
Copy OK
All tracks accurately ripped
No errors occurred
End of status report
==== Log checksum 86D6DD58FD45BBDCA8AE253001CB0B9058D40E5C14D4E3334A30B6DFAB156CD4 ====

LOG (.CUE):

REM GENRE Classical
REM DATE 1999
REM DISCID 4F10C106
REM COMMENT "ExactAudioCopy v1.0b3"
FILE "01 - Piano Concerto in B flat minor, Op. 37 - I. Pesante allegro.wav" WAVE
TRACK 01 AUDIO
INDEX 01 00:00:00
TRACK 02 AUDIO
INDEX 00 12:27:05
FILE "02 - Piano Concerto in B flat minor, Op. 37 - II. Andante.wav" WAVE
INDEX 01 00:00:00
FILE "03 - Piano Concerto in B flat minor, Op. 37 - III. Furioso.wav" WAVE
TRACK 03 AUDIO
INDEX 01 00:00:00
TRACK 04 AUDIO
INDEX 00 09:16:25
FILE "04 - Violin Concerto in E minor, Op. 7 - I. Moderato.wav" WAVE
INDEX 01 00:00:00
TRACK 05 AUDIO
INDEX 00 13:23:20
FILE "05 - Violin Concerto in E minor, Op. 7 - II. Adagio camabile.wav" WAVE
INDEX 01 00:00:00
TRACK 06 AUDIO
INDEX 00 08:53:08
FILE "06 - Violin Concerto in E minor, Op. 7 - III. Allegro molto.wav" WAVE
INDEX 01 00:00:00
[teatrix.ru].t18972.torrent 
Торрент: Зарегистрирован [ 2016-03-18 12:22 ] · F8FD17FBDEDB450EC2621D0AA473D38AA1E9783C

Скачать .torrent

Скачать

13 KB

Статус: проверено
Скачан: 0 раз
Размер: 302 MB
terms.php



Быстрый ответ

Имя:

      
Для отправки сообщений необходимо включить JavaScript
Показать сообщения:    

Текущее время: 08-Дек 12:56

Часовой пояс: UTC + 3


Вы можете начинать темы
Вы можете отвечать на сообщения
Вы не можете редактировать свои сообщения
Вы не можете удалять свои сообщения
Вы не можете голосовать в опросах
Вы не можете прикреплять файлы к сообщениям
Вы можете скачивать файлы