(Vocal) Goethe und die Musik - Gounod*Spohr*Berlioz*Beethoven*Schubert*Mendelssohn etc. (Shirai, Coburn, Prey, Schreier - Marriner). - 1999, APE (image+.cue) lossless


 

[Цитировать]

Goethe und die Musik - Kennst du das Land
Жанр: Vocal
Страна-производитель диска: Germany
Год издания диска: 1999
Издатель (лейбл): Capriccio
Номер по каталогу: 49 269 2
Дата записи: 1999
Аудиокодек: APE
Тип рипа: image+.cue
Битрейт аудио: lossless
Продолжительность: 73'19 + 67'37
Источник: собственный рип
Наличие сканов в содержимом раздачи: да
Треклист/Исполнители:

CD1

1. Beethoven - Ouvertüre zu Goethes Trauerspiel Egmond
2. Mendelssohn - Ouvertüre "Meerestille und glückliche Fahrt"
3. Gounod - Faust, Arie & Chor "Le veau d'or"
4. Gounod - Faust, Szene & Arie "Quel trouble inconnu me Pénètre"-,,Salut! demeure...
5. Boito - Mefistofele, Coro ,,Perché di la??"
6. Boito - Mefistofele ,,Son lo spirito che nega"
7. Berlioz - Faust Verdamnis: Tanz der Sylphen
8. Spohr - Faust, Blocksbergszene: ,,Brenne Lanterne! Nahe und ferne dämmere auf"
9. Spohr - Faust, Szene & Arie: ,,Wie ist mir!"-,,Blöder Tor!"
10. Massenet - Werther ,,Qui m'aurait dit - Des cris joyeux"
11. Mahler - ,,Symphonie der Tausend" Schlusszene
Nicola Ghiuselev
Nicolai Ghiaurov
Giuseppe Sabbattini
Bo Skovhus
Academy of St. Martin in The Fields, Sir Neville Marriner
Sofia Philharmonic Orchestra, Emil Tabakov
RSO Berlin
Radio-Sinfonieorchester Stuttgart
etc.

CD2

1. Wolf - Mignon ,,Kennst du das Land"
2. Schubert - Erlkönig
3. Kuhlau - Über allen Gipfeln ist Ruh
4. Mozart - Das Veilchen KV 476
5. Beethoven - Mignons' Lied
6. Mendelssohn - Türkisches Schenkenlied
7. Schubert - An der Mond ,,Füllest wieder Busch und Tal"
8. Loewe - Der Zauberlehrling
9. Zelter - Der König in Thule
10. Schumann - Vier Lieder der Mignon: no.1 ,,Kennst du das Land"
11. Schubert - Sehnsucht
12. Loewe - Der Totentanz
13. Brahms - Dämmerung senkte sich von oben
14. Schubert - Heidenröslein
15. Liszt - Der du von dem Himmel bist
16. Schubert - Gesang der Geister über den Wassern
Mitsuko Shirai
Palmela Coburn
Hermann Prey
Peter Schreier
Academy of St. Martin in The Fields, Sir Neville Marriner
Rundfunk-Sinfonieorchester Berlin, Dietrich Knothe
RSO Berlin, David Shallon
etc.

Лог создания рипа

CD1

Exact Audio Copy V1.0 beta 3 from 29. August 2011
EAC extraction logfile from 3. August 2014, 16:20
Goethe und die Musik / Kennst du das Land CD1
Used drive : TS8XDVDSTRANSCEND Adapter: 1 ID: 0
Read mode : Secure
Utilize accurate stream : Yes
Defeat audio cache : Yes
Make use of C2 pointers : No
Read offset correction : 6
Overread into Lead-In and Lead-Out : No
Fill up missing offset samples with silence : Yes
Delete leading and trailing silent blocks : No
Null samples used in CRC calculations : Yes
Used interface : Native Win32 interface for Win NT & 2000
Used output format : Monkey's Audio Lossless Encoder
Selected bitrate : High Lossless Compression
Quality : High
Add ID3 tag : No
Command line compressor : C:\Program Files (x86)\Exact Audio Copy\MAC\MAC.exe
TOC of the extracted CD
Track | Start | Length | Start sector | End sector
---------------------------------------------------------
1 | 0:00.00 | 8:43.15 | 0 | 39239
2 | 8:43.15 | 11:25.37 | 39240 | 90651
3 | 20:08.52 | 2:09.33 | 90652 | 100359
4 | 22:18.10 | 6:45.30 | 100360 | 130764
5 | 29:03.40 | 4:12.10 | 130765 | 149674
6 | 33:15.50 | 3:37.02 | 149675 | 165951
7 | 36:52.52 | 2:22.50 | 165952 | 176651
8 | 39:15.27 | 7:58.13 | 176652 | 212514
9 | 47:13.40 | 5:37.10 | 212515 | 237799
10 | 52:50.50 | 7:53.12 | 237800 | 273286
11 | 60:43.62 | 12:36.20 | 273287 | 330006
Range status and errors
Selected range
Filename D:\EAC\Goethe und die Musik - Kennst du das Land CD1.wav
Peak level 100.0 %
Extraction speed 3.4 X
Range quality 100.0 %
Test CRC FD0F711B
Copy CRC FD0F711B
Copy OK
No errors occurred
AccurateRip summary
Track 1 accurately ripped (confidence 1) [759DFC10] (AR v2)
Track 2 accurately ripped (confidence 1) [C4EF4693] (AR v2)
Track 3 accurately ripped (confidence 1) [67AB2C49] (AR v2)
Track 4 accurately ripped (confidence 1) [2F7327F7] (AR v2)
Track 5 accurately ripped (confidence 1) [EDE4A4D2] (AR v2)
Track 6 accurately ripped (confidence 1) [F387180D] (AR v2)
Track 7 accurately ripped (confidence 1) [0C1152CE] (AR v2)
Track 8 accurately ripped (confidence 1) [4571856D] (AR v2)
Track 9 accurately ripped (confidence 1) [0FCD8CEB] (AR v2)
Track 10 accurately ripped (confidence 1) [7A790EA3] (AR v2)
Track 11 accurately ripped (confidence 1) [7618EDCE] (AR v2)
All tracks accurately ripped
End of status report
---- CUETools DB Plugin V2.1.3
[CTDB TOCID: HZ.zMJJLxJ.JcWXeZ3u.ukl_J2I-] found, Submit result: unrecognized or virtual drive
[5fa5a652] (1/1) Accurately ripped
==== Log checksum 5BD899DD78724290373253454CFC251B20336D78CB2138098B9484ECBE84DF2D ====

CD2

Exact Audio Copy V1.0 beta 3 from 29. August 2011
EAC extraction logfile from 3. August 2014, 16:05
Goethe und die Musik / Kennst du das Land CD2
Used drive : TSSTcorpCDDVDW SE-208AB Adapter: 1 ID: 1
Read mode : Secure
Utilize accurate stream : Yes
Defeat audio cache : Yes
Make use of C2 pointers : No
Read offset correction : 6
Overread into Lead-In and Lead-Out : No
Fill up missing offset samples with silence : Yes
Delete leading and trailing silent blocks : No
Null samples used in CRC calculations : Yes
Used interface : Native Win32 interface for Win NT & 2000
Used output format : Monkey's Audio Lossless Encoder
Selected bitrate : High Lossless Compression
Quality : High
Add ID3 tag : No
Command line compressor : C:\Program Files (x86)\Exact Audio Copy\MAC\MAC.exe
TOC of the extracted CD
Track | Start | Length | Start sector | End sector
---------------------------------------------------------
1 | 0:00.00 | 6:35.60 | 0 | 29684
2 | 6:35.60 | 3:54.12 | 29685 | 47246
3 | 10:29.72 | 1:46.05 | 47247 | 55201
4 | 12:16.02 | 2:34.50 | 55202 | 66801
5 | 14:50.52 | 4:19.15 | 66802 | 86241
6 | 19:09.67 | 3:40.25 | 86242 | 102766
7 | 22:50.17 | 6:23.68 | 102767 | 131559
8 | 29:14.10 | 3:53.57 | 131560 | 149091
9 | 33:07.67 | 2:08.35 | 149092 | 158726
10 | 35:16.27 | 4:59.23 | 158727 | 181174
11 | 40:15.50 | 4:10.60 | 181175 | 199984
12 | 44:26.35 | 3:39.42 | 199985 | 216451
13 | 48:06.02 | 4:09.15 | 216452 | 235141
14 | 52:15.17 | 1:56.38 | 235142 | 243879
15 | 54:11.55 | 3:36.05 | 243880 | 260084
16 | 57:47.60 | 9:50.45 | 260085 | 304379
Range status and errors
Selected range
Filename D:\EAC\Goethe und die Musik - Kennst du das Land CD2.wav
Peak level 100.0 %
Extraction speed 5.1 X
Range quality 100.0 %
Test CRC 8AEE6B85
Copy CRC 8AEE6B85
Copy OK
No errors occurred
AccurateRip summary
Track 1 accurately ripped (confidence 1) [AB093CF4] (AR v2)
Track 2 accurately ripped (confidence 1) [00A62B5F] (AR v2)
Track 3 accurately ripped (confidence 1) [A1A639A7] (AR v2)
Track 4 accurately ripped (confidence 1) [45BA3AD5] (AR v2)
Track 5 accurately ripped (confidence 1) [B3049938] (AR v2)
Track 6 accurately ripped (confidence 1) [AA2BB6B3] (AR v2)
Track 7 accurately ripped (confidence 1) [9CEB3B7A] (AR v2)
Track 8 accurately ripped (confidence 1) [11D1D8A4] (AR v2)
Track 9 accurately ripped (confidence 1) [724D8B39] (AR v2)
Track 10 accurately ripped (confidence 1) [693FA60C] (AR v2)
Track 11 accurately ripped (confidence 1) [1AA5121C] (AR v2)
Track 12 accurately ripped (confidence 1) [CD817EDC] (AR v2)
Track 13 accurately ripped (confidence 1) [9D205542] (AR v2)
Track 14 accurately ripped (confidence 1) [259C21D9] (AR v2)
Track 15 accurately ripped (confidence 1) [B8CEE2B1] (AR v2)
Track 16 accurately ripped (confidence 1) [C5EF7B59] (AR v2)
All tracks accurately ripped
End of status report
---- CUETools DB Plugin V2.1.3
[CTDB TOCID: SWkJeVVPiXf1ssuuRyS2uAtsJhM-] found, Submit result: SWkJeVVPiXf1ssuuRyS2uAtsJhM- has been confirmed
[85021302] (1/1) Accurately ripped
==== Log checksum 4A66F2E97A37AF4F5E6BEA4556C1F66A64C9472BD65967BD437A1332A5B97903 ====

Содержание индексной карты (.CUE)

CD1

REM GENRE Vocal
REM DATE 1999
REM DISCID 9011300B
REM COMMENT "ExactAudioCopy v1.0b3"
PERFORMER "Goethe und die Musik"
TITLE "Kennst du das Land CD1"
FILE "Goethe und die Musik - Kennst du das Land CD1.ape" WAVE
TRACK 01 AUDIO
TITLE "Beethoven - Ouvertüre zu Goethes Trauerspiel Egmond"
PERFORMER "Goethe und die Musik"
INDEX 01 00:00:00
TRACK 02 AUDIO
TITLE "Mendelssohn - Ouvertüre 'Meerestille und glückliche Fahrt'"
PERFORMER "Goethe und die Musik"
INDEX 00 08:41:40
INDEX 01 08:43:15
TRACK 03 AUDIO
TITLE "Gounod - Faust, Arie & Chor 'Le veau d'or'"
PERFORMER "Goethe und die Musik"
INDEX 00 20:04:57
INDEX 01 20:08:52
TRACK 04 AUDIO
TITLE "Gounod - Faust, Szene & Arie 'Quel trouble inconnu me Pénètre'-,,Salut! demeu..."
PERFORMER "Goethe und die Musik"
INDEX 00 22:15:15
INDEX 01 22:18:10
TRACK 05 AUDIO
TITLE "Boito - Mefistofele, Coro ,,Perché di la??'"
PERFORMER "Goethe und die Musik"
INDEX 00 29:00:32
INDEX 01 29:03:40
TRACK 06 AUDIO
TITLE "Boito - Mefistofele ,,Son lo spirito che nega'"
PERFORMER "Goethe und die Musik"
INDEX 00 33:12:20
INDEX 01 33:15:50
TRACK 07 AUDIO
TITLE "Berlioz - Faust Verdamnis: Tanz der Sylphen"
PERFORMER "Goethe und die Musik"
INDEX 00 36:49:17
INDEX 01 36:52:52
TRACK 08 AUDIO
TITLE "Spohr - Faust, Blocksbergszene: ,,Brenne Lanterne! Nahe und ferne dämmere auf'"
PERFORMER "Goethe und die Musik"
INDEX 00 39:11:60
INDEX 01 39:15:27
TRACK 09 AUDIO
TITLE "Spohr - Faust, Szene & Arie: ,,Wie ist mir!'-,,Blöder Tor!'"
PERFORMER "Goethe und die Musik"
INDEX 00 47:10:32
INDEX 01 47:13:40
TRACK 10 AUDIO
TITLE "Massenet - Werther ,,Qui m'aurait dit - Des cris joyeux'"
PERFORMER "Goethe und die Musik"
INDEX 00 52:46:57
INDEX 01 52:50:50
TRACK 11 AUDIO
TITLE "Mahler - ,,Symphonie der Tausend' Schlusszene"
PERFORMER "Goethe und die Musik"
INDEX 00 60:41:10
INDEX 01 60:43:62

CD2

REM GENRE Vocal
REM DATE 1999
REM DISCID 030FDA10
REM COMMENT "ExactAudioCopy v1.0b3"
PERFORMER "Goethe und die Musik"
TITLE "Kennst du das Land CD2"
FILE "Goethe und die Musik - Kennst du das Land CD2.ape" WAVE
TRACK 01 AUDIO
TITLE "Wolf - Mignon ,,Kennst du das Land'"
PERFORMER "Goethe und die Musik"
INDEX 01 00:00:00
TRACK 02 AUDIO
TITLE "Schubert - Erlkönig"
PERFORMER "Goethe und die Musik"
INDEX 00 06:32:47
INDEX 01 06:35:60
TRACK 03 AUDIO
TITLE "Kuhlau - Über allen Gipfeln ist Ruh"
PERFORMER "Goethe und die Musik"
INDEX 00 10:26:30
INDEX 01 10:29:72
TRACK 04 AUDIO
TITLE "Mozart - Das Veilchen KV 476"
PERFORMER "Goethe und die Musik"
INDEX 00 12:11:72
INDEX 01 12:16:02
TRACK 05 AUDIO
TITLE "Beethoven - Mignons' Lied"
PERFORMER "Goethe und die Musik"
INDEX 00 14:47:60
INDEX 01 14:50:52
TRACK 06 AUDIO
TITLE "Mendelssohn - Türkisches Schenkenlied"
PERFORMER "Goethe und die Musik"
INDEX 00 19:07:05
INDEX 01 19:09:67
TRACK 07 AUDIO
TITLE "Schubert - An der Mond ,,Füllest wieder Busch und Tal'"
PERFORMER "Goethe und die Musik"
INDEX 00 22:48:07
INDEX 01 22:50:17
TRACK 08 AUDIO
TITLE "Loewe - Der Zauberlehrling"
PERFORMER "Goethe und die Musik"
INDEX 00 29:10:05
INDEX 01 29:14:10
TRACK 09 AUDIO
TITLE "Zelter - Der König in Thule"
PERFORMER "Goethe und die Musik"
INDEX 00 33:04:72
INDEX 01 33:07:67
TRACK 10 AUDIO
TITLE "Schumann - Vier Lieder der Mignon: no.1 ,,Kennst du das Land'"
PERFORMER "Goethe und die Musik"
INDEX 00 35:13:17
INDEX 01 35:16:27
TRACK 11 AUDIO
TITLE "Schubert - Sehnsucht"
PERFORMER "Goethe und die Musik"
INDEX 00 40:12:42
INDEX 01 40:15:50
TRACK 12 AUDIO
TITLE "Loewe - Der Totentanz"
PERFORMER "Goethe und die Musik"
INDEX 00 44:23:65
INDEX 01 44:26:35
TRACK 13 AUDIO
TITLE "Brahms - Dämmerung senkte sich von oben"
PERFORMER "Goethe und die Musik"
INDEX 00 48:03:00
INDEX 01 48:06:02
TRACK 14 AUDIO
TITLE "Schubert - Heidenröslein"
PERFORMER "Goethe und die Musik"
INDEX 00 52:11:70
INDEX 01 52:15:17
TRACK 15 AUDIO
TITLE "Liszt - Der du von dem Himmel bist"
PERFORMER "Goethe und die Musik"
INDEX 00 54:08:10
INDEX 01 54:11:55
TRACK 16 AUDIO
TITLE "Schubert - Gesang der Geister über den Wassern"
PERFORMER "Goethe und die Musik"
INDEX 00 57:44:60
INDEX 01 57:47:60
Наслаждайтесь!!



Показать сообщения:    

Текущее время: 11-Дек 16:54

Часовой пояс: UTC + 3


Вы не можете начинать темы
Вы не можете отвечать на сообщения
Вы не можете редактировать свои сообщения
Вы не можете удалять свои сообщения
Вы не можете голосовать в опросах
Вы не можете прикреплять файлы к сообщениям
Вы не можете скачивать файлы