(Classical) Edvard Grieg - Choral Music - Det Norske Solistkor, Grete Pedersen - 2007, FLAC (image+.cue) lossless


Статистика раздачи [Обновить пиров]
Размер:  233 MB   |    Зарегистрирован:  8 месяцев 17 дней   |    Скачан:  0 раз

Полного источника не было: Никогда

Личеров:  6  [  0 KB/s  ]   Подробная статистика пиров
 
   
 
 
 

[Цитировать]

Edvard Grieg - Choral Music - Det Norske Solistkor, Grete Pedersen
Жанр: Classical
Страна-производитель диска: Sweden
Год издания диска: 2007
Издатель (лейбл): BIS
Номер по каталогу: BIS-SACD-1661
Дата записи: 2006
Аудиокодек: FLAC
Тип рипа: image+.cue
Битрейт аудио: lossless
Продолжительность: 60:22
Источник: собственный рип
Наличие сканов в содержимом раздачи: да
Треклист:
Edvard Grieg (1843-1907)
[1] Ved Rondane
[2] Jeg lagde mig så sildig
To religiøse kor (Two Religious Choral Songs)
[3] Blegnet, segnet
[4] Ave, Maris Stella
[5] Margrethes vuggesang
[6] Kveldssang for Blakken
[7] Landkjenning
[8] Våren
[9] I Folketone
Fire Salmer (Four Psalms), Op. 74
[10] I Himmelen
[11] Jesus Kristus er opfaren
[12] Guds Søn har gjort meg fri
[13] Hvad est du dog skjøn
Исполнители:
Det Norske Solistkor (The Norwegian Soloists’ Choir)
Grete Pedersen conductor

Лог создания рипа

Exact Audio Copy V1.0 beta 3 from 29. August 2011
EAC extraction logfile from 30. July 2014, 2:28
Det Norske Solistkor, Grete Pedersen / Grieg - Choral Music
Used drive : HL-DT-STDVDRAM GU70N Adapter: 0 ID: 0
Read mode : Secure
Utilize accurate stream : Yes
Defeat audio cache : Yes
Make use of C2 pointers : No
Read offset correction : 48
Overread into Lead-In and Lead-Out : No
Fill up missing offset samples with silence : Yes
Delete leading and trailing silent blocks : No
Null samples used in CRC calculations : Yes
Used interface : Native Win32 interface for Win NT & 2000
Used output format : User Defined Encoder
Selected bitrate : 128 kBit/s
Quality : High
Add ID3 tag : No
Command line compressor : C:\Program Files (x86)\Exact Audio Copy\Flac\flac.exe
Additional command line options : -V -8 -T "Date=%year%" -T "Genre=%genre%" %source%
TOC of the extracted CD
Track | Start | Length | Start sector | End sector
---------------------------------------------------------
1 | 0:00.00 | 3:08.15 | 0 | 14114
2 | 3:08.15 | 4:39.18 | 14115 | 35057
3 | 7:47.33 | 5:11.24 | 35058 | 58406
4 | 12:58.57 | 3:34.13 | 58407 | 74469
5 | 16:32.70 | 1:40.09 | 74470 | 81978
6 | 18:13.04 | 2:09.51 | 81979 | 91704
7 | 20:22.55 | 5:43.14 | 91705 | 117443
8 | 26:05.69 | 5:27.48 | 117444 | 142016
9 | 31:33.42 | 1:53.27 | 142017 | 150518
10 | 33:26.69 | 6:17.53 | 150519 | 178846
11 | 39:44.47 | 8:07.40 | 178847 | 215411
12 | 47:52.12 | 6:07.61 | 215412 | 242997
13 | 53:59.73 | 6:22.02 | 242998 | 271649
Range status and errors
Selected range
Filename C:\temp\BIS-SACD-1661 - Grieg - Choral Music\Grieg - Choral Music.wav
Peak level 100.0 %
Extraction speed 2.2 X
Range quality 100.0 %
Test CRC AFC7FC02
Copy CRC AFC7FC02
Copy OK
No errors occurred
AccurateRip summary
Track 1 accurately ripped (confidence 7) [4E113F60] (AR v2)
Track 2 accurately ripped (confidence 7) [9ED2FEB0] (AR v2)
Track 3 accurately ripped (confidence 7) [11942BC1] (AR v2)
Track 4 accurately ripped (confidence 7) [058393B3] (AR v2)
Track 5 accurately ripped (confidence 7) [01E3B772] (AR v2)
Track 6 accurately ripped (confidence 7) [45634885] (AR v2)
Track 7 accurately ripped (confidence 7) [D2B18D1F] (AR v2)
Track 8 accurately ripped (confidence 7) [2F678E04] (AR v2)
Track 9 accurately ripped (confidence 7) [096780DB] (AR v2)
Track 10 accurately ripped (confidence 7) [7BC64385] (AR v2)
Track 11 accurately ripped (confidence 7) [1A1D4C03] (AR v2)
Track 12 accurately ripped (confidence 7) [770B1A62] (AR v2)
Track 13 accurately ripped (confidence 7) [C19BBF00] (AR v2)
All tracks accurately ripped
End of status report
==== Log checksum D6F0D3E142E105F779D53D68530B5879424D41AF9467319AA345A0D6B7B89059 ====
[teatrix.ru].t18974.torrent 
Торрент: Зарегистрирован [ 2016-03-18 12:26 ] · 544560ED53A5D55F6CAD0EAAB35515EAEB347573

Скачать .torrent

Скачать

37 KB

Статус: проверено
Скачан: 0 раз
Размер: 233 MB
terms.php



Быстрый ответ

Имя:

      
Для отправки сообщений необходимо включить JavaScript
Показать сообщения:    

Текущее время: 05-Дек 01:19

Часовой пояс: UTC + 3


Вы можете начинать темы
Вы можете отвечать на сообщения
Вы не можете редактировать свои сообщения
Вы не можете удалять свои сообщения
Вы не можете голосовать в опросах
Вы не можете прикреплять файлы к сообщениям
Вы можете скачивать файлы