(Classical) Robert Schumann - Songs of Love and Loss - Sarah Connolly, Eugene Asti - 2008, FLAC (image+.cue) lossless


 

[Цитировать]

Robert Schumann - Songs of Love and Loss - Sarah Connolly, Eugene Asti
Жанр: Classical
Страна-производитель диска: UK
Год издания диска: 2008
Издатель (лейбл): Chandos Records
Номер по каталогу: CHAN 10492
Дата записи: 2007
Аудиокодек: FLAC
Тип рипа: image+.cue
Битрейт аудио: lossless
Продолжительность: 65:58
Источник: собственный рип
Наличие сканов в содержимом раздачи: да
Треклист:
Robert Schumann (1810-1856)
[1] Mein schöner Stern!, Op. 101 No. 4
[2]-[6] Gedichte der Königin Maria Stuart, Op. 135
[7] Requiem, Op. 90 No. 7
[8]-[19] Liederkreis, Op. 39 (Joseph von Eichendorff)
[20]-[27] Frauenliebe und -leben, Op. 42 (Acht Lieder nach Adelbert von Chamisso)
Исполнители:
Sarah Connolly mezzo-soprano
Eugene Asti piano

Лог создания рипа

Exact Audio Copy V1.0 beta 3 from 29. August 2011
EAC extraction logfile from 24. May 2014, 19:05
Sarah Connolly, Eugene Asti / Schumann - Songs of Love & Loss
Used drive : HL-DT-STDVDRAM GSA-4083N Adapter: 1 ID: 0
Read mode : Secure
Utilize accurate stream : Yes
Defeat audio cache : Yes
Make use of C2 pointers : No
Read offset correction : 667
Overread into Lead-In and Lead-Out : No
Fill up missing offset samples with silence : Yes
Delete leading and trailing silent blocks : No
Null samples used in CRC calculations : Yes
Used interface : Native Win32 interface for Win NT & 2000
Used output format : User Defined Encoder
Selected bitrate : 896 kBit/s
Quality : High
Add ID3 tag : No
Command line compressor : C:\Program Files\Exact Audio Copy\Flac\flac.exe
Additional command line options : -V -8 %source%
TOC of the extracted CD
Track | Start | Length | Start sector | End sector
---------------------------------------------------------
1 | 0:00.00 | 2:43.14 | 0 | 12238
2 | 2:43.14 | 1:52.16 | 12239 | 20654
3 | 4:35.30 | 1:35.59 | 20655 | 27838
4 | 6:11.14 | 1:32.60 | 27839 | 34798
5 | 7:43.74 | 2:59.35 | 34799 | 48258
6 | 10:43.34 | 1:42.26 | 48259 | 55934
7 | 12:25.60 | 4:08.37 | 55935 | 74571
8 | 16:34.22 | 2:06.43 | 74572 | 84064
9 | 18:40.65 | 1:44.11 | 84065 | 91875
10 | 20:25.01 | 2:18.48 | 91876 | 102273
11 | 22:43.49 | 1:33.42 | 102274 | 109290
12 | 24:17.16 | 3:58.44 | 109291 | 127184
13 | 28:15.60 | 1:19.49 | 127185 | 133158
14 | 29:35.34 | 2:40.45 | 133159 | 145203
15 | 32:16.04 | 1:22.09 | 145204 | 151362
16 | 33:38.13 | 2:41.50 | 151363 | 163487
17 | 36:19.63 | 2:53.09 | 163488 | 176471
18 | 39:12.72 | 1:16.54 | 176472 | 182225
19 | 40:29.51 | 1:33.09 | 182226 | 189209
20 | 42:02.60 | 2:30.07 | 189210 | 200466
21 | 44:32.67 | 3:57.35 | 200467 | 218276
22 | 48:30.27 | 1:36.03 | 218277 | 225479
23 | 50:06.30 | 2:56.31 | 225480 | 238710
24 | 53:02.61 | 2:08.18 | 238711 | 248328
25 | 55:11.04 | 4:56.42 | 248329 | 270570
26 | 60:07.46 | 1:35.42 | 270571 | 277737
27 | 61:43.13 | 4:16.37 | 277738 | 296974
Range status and errors
Selected range
Filename J:\New Music\CHAN_10492 - Schumann - Songs of Love and Loss - Sarah Connolly\Schumann - Songs of Love & Loss.wav
Peak level 79.4 %
Extraction speed 2.6 X
Range quality 100.0 %
Test CRC 296115C6
Copy CRC 296115C6
Copy OK
No errors occurred
AccurateRip summary
Track 1 accurately ripped (confidence 3) [22B8DA96] (AR v1)
Track 2 accurately ripped (confidence 3) [8D9CC444] (AR v1)
Track 3 accurately ripped (confidence 3) [56D34721] (AR v1)
Track 4 accurately ripped (confidence 3) [B7E64C9B] (AR v1)
Track 5 accurately ripped (confidence 3) [9734DC07] (AR v1)
Track 6 accurately ripped (confidence 3) [E0DA94AE] (AR v1)
Track 7 accurately ripped (confidence 3) [DA3502DA] (AR v1)
Track 8 accurately ripped (confidence 3) [09F4462B] (AR v1)
Track 9 accurately ripped (confidence 3) [09CB0B4F] (AR v1)
Track 10 accurately ripped (confidence 3) [36BD4269] (AR v1)
Track 11 accurately ripped (confidence 3) [1E6B1A05] (AR v1)
Track 12 accurately ripped (confidence 3) [D57CBF2D] (AR v1)
Track 13 accurately ripped (confidence 3) [8887B6F9] (AR v1)
Track 14 accurately ripped (confidence 3) [45C6D46F] (AR v1)
Track 15 accurately ripped (confidence 3) [01D52C39] (AR v1)
Track 16 accurately ripped (confidence 3) [71F3D6BC] (AR v1)
Track 17 accurately ripped (confidence 3) [3BB2F9C3] (AR v1)
Track 18 accurately ripped (confidence 3) [E2463F25] (AR v1)
Track 19 accurately ripped (confidence 3) [5A8A7DF9] (AR v1)
Track 20 accurately ripped (confidence 3) [74D38D30] (AR v1)
Track 21 accurately ripped (confidence 3) [5A725FBC] (AR v1)
Track 22 accurately ripped (confidence 3) [DCADD56E] (AR v1)
Track 23 accurately ripped (confidence 3) [B4B40F3A] (AR v1)
Track 24 accurately ripped (confidence 3) [0BCEB83D] (AR v1)
Track 25 accurately ripped (confidence 3) [171F5110] (AR v1)
Track 26 accurately ripped (confidence 3) [B2904570] (AR v1)
Track 27 accurately ripped (confidence 2) [674100D0] (AR v1)
All tracks accurately ripped
End of status report
==== Log checksum 2183DB50A638BE343DCFD4AA00362FECD43182747974E2CCEAC0D897BAF8A6E6 ====



Показать сообщения:    

Текущее время: 11-Дек 14:52

Часовой пояс: UTC + 3


Вы не можете начинать темы
Вы не можете отвечать на сообщения
Вы не можете редактировать свои сообщения
Вы не можете удалять свои сообщения
Вы не можете голосовать в опросах
Вы не можете прикреплять файлы к сообщениям
Вы не можете скачивать файлы