(Classical / Vocal) Franz Schubert - Die schone Mullerin • Winterreise • Schwanengesang / Франц Шуберт - Прекрасная мельничиха • Зимний путь • Лебединая песнь (Peter Schreier, Andras Schiff, 1989/1991) - 2003 [3 CD], FLAC (image+.cue) lossless


 

[Цитировать]

Franz Schubert | Франц Шуберт
(1797–1828)



Die schöne Müllerin | Winterreise | Schwanengesang
Прекрасная мельничиха | Зимний путь | Лебединая песнь


Peter Schreier tenorAndrás Schiff piano


Жанр: Classical / Vocal
Даты и место записи: Mozartsaal, Wiener Konzerthaus, VIII.1989 & VIII.1991
Формат записи: DDD, Stereo
Год издания диска: 2003
Издатель (лейбл): Decca
Номер по каталогу: 475 268-2
Аудиокодек: FLAC
Тип рипа: image+.cue
Битрейт аудио: lossless
Продолжительность: 3:17:51
Наличие сканов в содержимом раздачи: да
Источник: блог OdeonMusic

-Tracklist / ТреклистCD 1: Die schöne Müllerin
Die schöne Müllerin, D. 795 - 1:02:55
Nr. 1. Das Wandern - 2:48
  • Nr. 2. Wohin? - 2:25
  • Nr. 3. Halt! - 1:33
  • Nr. 4. Danksagung an den Bach - 2:19
  • Nr. 5. Am Feierabend - 2:30
  • Nr. 6. Der Neugerige - 3:55
  • Nr. 7. Ungeduld - 2:58
  • Nr. 8. Morgengruss - 4:06
  • Nr. 9. Des Müllers Blumen - 3:33
  • Nr. 10. Tränenregen - 4:34
  • Nr. 11. Mein! - 2:27
  • Nr. 12. Pause - 5:07
  • Nr. 13. Mit dem grünen Lautenbande - 2:19
  • Nr. 14. Der Jäger - 1:09
  • Nr. 15. Eifersucht und Stolz - 1:39
  • Nr. 16. Die liebe Farbe - 4:02
  • Nr. 17. Die böse Farbe - 2:10
  • Nr. 18. Trockne Blumen - 3:23
  • Nr. 19. Der Müller und der Bach - 4:07
  • Nr. 20. Des Baches Wiegenlied - 5:50
    _____
    Recorded: Mozartsaal, Wiener Konzerthaus, August 1989

    CD 2: Winterreise
    Winterreise, D. 911 - 1:12:21
    Nr. 1. Gute Nacht - 5:26
  • Nr. 2. Die Wetterfahne - 1:49
  • Nr. 3. Gefrorne Tränen - 2:24
  • Nr. 4. Erstarrung - 2:39
  • Nr. 5. Der Lindenbaum - 5:01
  • Nr. 6. Wasserflut - 4:12
  • Nr. 7. Auf dem Flusse - 3:27
  • Nr. 8. Rückblick - 2:12
  • Nr. 9. Irrlicht - 2:52
  • Nr. 10. Rast - 3:19
  • Nr. 11. Frühlingstraum - 4:02
  • Nr. 12. Einsamkeit - 2:59
  • Nr. 13. Die Post - 2:17
  • Nr. 14. Der greise Kopf - 3:07
  • Nr. 15. Die Krähe - 1:26
  • Nr. 16. Letzte Hoffnung - 2:22
  • Nr. 17. Im Dorfe - 2:55
  • Nr. 18. Der stürmische Morgen - 0:57
  • Nr. 19. Täuschung - 1:36
  • Nr. 20. Der Wegweiser - 4:37
  • Nr. 21. Das Wirtshaus - 4:53
  • Nr. 22. Mut! - 1:37
  • Nr. 23. Die Nebensonnen - 2:49
  • Nr. 24. Der Leiermann - 3:21
    _____
    Recorded: Mozartsaal, Wiener Konzerthaus, August 1991

    CD 3: Schwanengesang
    Schwanengesang, D. 957 - 1:02:35
    Nr. 1. Liebesbotschaft - 2:43
  • Nr. 2. Kriegers Ahnung - 5:06
  • Nr. 3. Frühlingssehnsucht - 3:07
  • Herbst, D. 945 - 3:29
  • Nr. 6. In der Ferne - 5:49
  • Nr. 4. Ständchen - 3:18
  • Nr. 5. Aufenthalt - 3:25
  • Nr. 7. Abschied - 4:26
  • Nr. 10. Das Fischermädchen - 2:08
  • Nr. 12. Am Meer - 4:34
  • Nr. 11. Die Stadt - 2:45
  • Nr. 13. Der Doppelgänger - 3:57
  • Nr. 9. Ihr Bild - 2:52
  • Nr. 8. Der Atlas - 2:23
  • Nr. 14. Die Taubenpost - 3:58
    Der Wanderer an den Mond, D. 870 - 2:20
  • Am Fenster, D. 878 - 4:16
  • Bei dir allein!, D. 866 Nr. 2 - 1:59
    _____
    Recorded: Mozartsaal, Wiener Konzerthaus, August 1989
    -

    EAC logs / Отчёты EACCD 1: Die schöne Müllerin

    Exact Audio Copy V1.0 beta 3 from 29. August 2011
    EAC extraction logfile from 5. June 2014, 20:26
    Peter Schreier / Schubert - Die schöne Müllerin, Winterreise, Schwanengesang - Peter Schreier (Disc 1)
    Used drive : TSSTcorpCDDVDW SH-222BB Adapter: 2 ID: 1
    Read mode : Secure
    Utilize accurate stream : Yes
    Defeat audio cache : Yes
    Make use of C2 pointers : No
    Read offset correction : 6
    Overread into Lead-In and Lead-Out : No
    Fill up missing offset samples with silence : Yes
    Delete leading and trailing silent blocks : No
    Null samples used in CRC calculations : Yes
    Used interface : Native Win32 interface for Win NT & 2000
    Used output format : User Defined Encoder
    Selected bitrate : 896 kBit/s
    Quality : High
    Add ID3 tag : No
    Command line compressor : C:\Program Files\Exact Audio Copy\FLAC\FLAC.EXE
    Additional command line options : -8 -V -T "TITLE=%title%" -T "ARTIST=%artist%" -T "ALBUMARTIST=%albumartist%" -T "ALBUM=%albumtitle%" -T "DATE=%year%" -T "TRACKNUMBER=%tracknr%" -T "TRACKTOTAL=%numtracks%" -T "GENRE=%genre%" -T "COMMENT=%comment%" -T "PERFORMER=%albuminterpret%" -T "COMPOSER=%composer%" %source% -o %dest%
    TOC of the extracted CD
    Track | Start | Length | Start sector | End sector
    ---------------------------------------------------------
    1 | 0:00.32 | 2:48.18 | 32 | 12649
    2 | 2:48.50 | 2:24.45 | 12650 | 23494
    3 | 5:13.20 | 1:33.12 | 23495 | 30481
    4 | 6:46.32 | 2:18.50 | 30482 | 40881
    5 | 9:05.07 | 2:30.00 | 40882 | 52131
    6 | 11:35.07 | 3:55.25 | 52132 | 69781
    7 | 15:30.32 | 2:58.00 | 69782 | 83131
    8 | 18:28.32 | 4:06.25 | 83132 | 101606
    9 | 22:34.57 | 3:33.13 | 101607 | 117594
    10 | 26:07.70 | 4:34.25 | 117595 | 138169
    11 | 30:42.20 | 2:26.50 | 138170 | 149169
    12 | 33:08.70 | 5:07.25 | 149170 | 172219
    13 | 38:16.20 | 2:18.62 | 172220 | 182631
    14 | 40:35.07 | 1:09.05 | 182632 | 187811
    15 | 41:44.12 | 1:39.08 | 187812 | 195244
    16 | 43:23.20 | 4:01.62 | 195245 | 213381
    17 | 47:25.07 | 2:10.13 | 213382 | 223144
    18 | 49:35.20 | 3:23.12 | 223145 | 238381
    19 | 52:58.32 | 4:07.00 | 238382 | 256906
    20 | 57:05.32 | 5:50.00 | 256907 | 283156
    Range status and errors
    Selected range
    Filename E:\4000\[4327] Schubert – Die schöne Müllerin, Winterreise, Schwanengesang – Peter Schreier\cd1\Schubert - Die schöne Müllerin, Winterreise, Schwanengesang - Peter Schreier (Disc 1).wav
    Peak level 96.6 %
    Extraction speed 2.3 X
    Range quality 100.0 %
    Test CRC 195183AD
    Copy CRC 195183AD
    Copy OK
    No errors occurred
    AccurateRip summary
    Track 1 cannot be verified as accurate (confidence 14) [08F6DFB7], AccurateRip returned [C3258E5D] (AR v2)
    Track 2 cannot be verified as accurate (confidence 13) [09ADE9C2], AccurateRip returned [86188884] (AR v2)
    Track 3 cannot be verified as accurate (confidence 14) [16A60DB4], AccurateRip returned [9F53A731] (AR v2)
    Track 4 cannot be verified as accurate (confidence 14) [0A05E0D5], AccurateRip returned [EB882E59] (AR v2)
    Track 5 cannot be verified as accurate (confidence 14) [612844C3], AccurateRip returned [68F1D229] (AR v2)
    Track 6 cannot be verified as accurate (confidence 14) [A3FAE0DA], AccurateRip returned [E6067EC5] (AR v2)
    Track 7 cannot be verified as accurate (confidence 14) [8D1B852E], AccurateRip returned [B3F00B3F] (AR v2)
    Track 8 cannot be verified as accurate (confidence 13) [558DB787], AccurateRip returned [0CC586C8] (AR v2)
    Track 9 cannot be verified as accurate (confidence 14) [97FBAE7E], AccurateRip returned [0F5903D3] (AR v2)
    Track 10 cannot be verified as accurate (confidence 14) [6D71BC0E], AccurateRip returned [B5EFBEC2] (AR v2)
    Track 11 cannot be verified as accurate (confidence 14) [DA5D2DE4], AccurateRip returned [34A4C294] (AR v2)
    Track 12 cannot be verified as accurate (confidence 14) [E95AF774], AccurateRip returned [B1CD9DE1] (AR v2)
    Track 13 cannot be verified as accurate (confidence 14) [5A78CAB7], AccurateRip returned [0CBE8C97] (AR v2)
    Track 14 cannot be verified as accurate (confidence 14) [CB01F7CF], AccurateRip returned [4B12C482] (AR v2)
    Track 15 cannot be verified as accurate (confidence 14) [73FEDAFC], AccurateRip returned [E44EB2F3] (AR v2)
    Track 16 cannot be verified as accurate (confidence 14) [030A9003], AccurateRip returned [5AC12A50] (AR v2)
    Track 17 cannot be verified as accurate (confidence 14) [CB7D316D], AccurateRip returned [DD0CAFEF] (AR v2)
    Track 18 cannot be verified as accurate (confidence 14) [3DCDA1F5], AccurateRip returned [9072A718] (AR v2)
    Track 19 cannot be verified as accurate (confidence 14) [983131C2], AccurateRip returned [6299519C] (AR v2)
    Track 20 cannot be verified as accurate (confidence 13) [9DACDFAD], AccurateRip returned [BC1A4510] (AR v2)
    No tracks could be verified as accurate
    You may have a different pressing from the one(s) in the database
    End of status report
    ==== Log checksum D09C494E6C97512652B43395EC9D18E93E25F96C77AEDBEFD776263BA797365C ====

    CD 2: Winterreise

    Exact Audio Copy V1.0 beta 3 from 29. August 2011
    EAC extraction logfile from 5. June 2014, 22:42
    Peter Schreier / Schubert - Die schöne Müllerin, Winterreise, Schwanengesang - Peter Schreier (Disc 2)
    Used drive : TSSTcorpCDDVDW SH-222BB Adapter: 2 ID: 1
    Read mode : Secure
    Utilize accurate stream : Yes
    Defeat audio cache : Yes
    Make use of C2 pointers : No
    Read offset correction : 6
    Overread into Lead-In and Lead-Out : No
    Fill up missing offset samples with silence : Yes
    Delete leading and trailing silent blocks : No
    Null samples used in CRC calculations : Yes
    Used interface : Native Win32 interface for Win NT & 2000
    Used output format : User Defined Encoder
    Selected bitrate : 896 kBit/s
    Quality : High
    Add ID3 tag : No
    Command line compressor : C:\Program Files\Exact Audio Copy\FLAC\FLAC.EXE
    Additional command line options : -8 -V -T "TITLE=%title%" -T "ARTIST=%artist%" -T "ALBUMARTIST=%albumartist%" -T "ALBUM=%albumtitle%" -T "DATE=%year%" -T "TRACKNUMBER=%tracknr%" -T "TRACKTOTAL=%numtracks%" -T "GENRE=%genre%" -T "COMMENT=%comment%" -T "PERFORMER=%albuminterpret%" -T "COMPOSER=%composer%" %source% -o %dest%
    TOC of the extracted CD
    Track | Start | Length | Start sector | End sector
    ---------------------------------------------------------
    1 | 0:00.32 | 5:26.25 | 32 | 24506
    2 | 5:26.57 | 1:48.50 | 24507 | 32656
    3 | 7:15.32 | 2:24.00 | 32657 | 43456
    4 | 9:39.32 | 2:39.13 | 43457 | 55394
    5 | 12:18.45 | 5:01.25 | 55395 | 77994
    6 | 17:19.70 | 4:11.50 | 77995 | 96869
    7 | 21:31.45 | 3:27.25 | 96870 | 112419
    8 | 24:58.70 | 2:12.12 | 112420 | 122331
    9 | 27:11.07 | 2:52.13 | 122332 | 135244
    10 | 30:03.20 | 3:19.25 | 135245 | 150194
    11 | 33:22.45 | 4:02.37 | 150195 | 168381
    12 | 37:25.07 | 2:58.50 | 168382 | 181781
    13 | 40:23.57 | 2:17.13 | 181782 | 192069
    14 | 42:40.70 | 3:07.00 | 192070 | 206094
    15 | 45:47.70 | 1:25.62 | 206095 | 212531
    16 | 47:13.57 | 2:22.13 | 212532 | 223194
    17 | 49:35.70 | 2:55.37 | 223195 | 236356
    18 | 52:31.32 | 0:57.33 | 236357 | 240664
    19 | 53:28.65 | 1:35.55 | 240665 | 247844
    20 | 55:04.45 | 4:36.62 | 247845 | 268606
    21 | 59:41.32 | 4:52.63 | 268607 | 290569
    22 | 64:34.20 | 1:37.00 | 290570 | 297844
    23 | 66:11.20 | 2:49.12 | 297845 | 310531
    24 | 69:00.32 | 3:20.63 | 310532 | 325594
    Range status and errors
    Selected range
    Filename E:\4000\[4327] Schubert – Die schöne Müllerin, Winterreise, Schwanengesang – Peter Schreier\cd2\Schubert - Die schöne Müllerin, Winterreise, Schwanengesang - Peter Schreier (Disc 2).wav
    Peak level 97.8 %
    Extraction speed 2.3 X
    Range quality 99.9 %
    Test CRC AFD5E883
    Copy CRC AFD5E883
    Copy OK
    No errors occurred
    AccurateRip summary
    Track 1 accurately ripped (confidence 7) [C1720225] (AR v2)
    Track 2 accurately ripped (confidence 7) [45680585] (AR v2)
    Track 3 accurately ripped (confidence 7) [2A861E23] (AR v2)
    Track 4 accurately ripped (confidence 7) [6D205ED9] (AR v2)
    Track 5 accurately ripped (confidence 7) [6A4F8E81] (AR v2)
    Track 6 accurately ripped (confidence 7) [19CA1B42] (AR v2)
    Track 7 accurately ripped (confidence 7) [21CFE730] (AR v2)
    Track 8 accurately ripped (confidence 7) [4C406ACB] (AR v2)
    Track 9 accurately ripped (confidence 7) [05DC61E6] (AR v2)
    Track 10 accurately ripped (confidence 7) [DC24CA2F] (AR v2)
    Track 11 accurately ripped (confidence 7) [CE6D9C18] (AR v2)
    Track 12 accurately ripped (confidence 7) [9AD7744E] (AR v2)
    Track 13 accurately ripped (confidence 7) [B20001CC] (AR v2)
    Track 14 accurately ripped (confidence 7) [F956A3D0] (AR v2)
    Track 15 accurately ripped (confidence 7) [F5B15F67] (AR v2)
    Track 16 accurately ripped (confidence 7) [AE7AA883] (AR v2)
    Track 17 accurately ripped (confidence 6) [B090E3CF] (AR v2)
    Track 18 accurately ripped (confidence 7) [C477052B] (AR v2)
    Track 19 accurately ripped (confidence 7) [EE177D69] (AR v2)
    Track 20 accurately ripped (confidence 7) [9123864A] (AR v2)
    Track 21 accurately ripped (confidence 7) [C1FF6F17] (AR v2)
    Track 22 accurately ripped (confidence 7) [690A5C04] (AR v2)
    Track 23 accurately ripped (confidence 7) [F54528D5] (AR v2)
    Track 24 accurately ripped (confidence 7) [F2266483] (AR v2)
    All tracks accurately ripped
    End of status report
    ==== Log checksum 8CE565C7B60F1C6C9371580419D6EC2175B02C5F9C39EDC8B33D5CD351ECE498 ====

    CD 3: Schwanengesang

    Exact Audio Copy V1.0 beta 3 from 29. August 2011
    EAC extraction logfile from 6. June 2014, 9:59
    Peter Schreier / Schubert - Die schöne Müllerin, Winterreise, Schwanengesang - Peter Schreier (Disc 3)
    Used drive : TSSTcorpCDDVDW SH-222BB Adapter: 2 ID: 1
    Read mode : Secure
    Utilize accurate stream : Yes
    Defeat audio cache : Yes
    Make use of C2 pointers : No
    Read offset correction : 6
    Overread into Lead-In and Lead-Out : No
    Fill up missing offset samples with silence : Yes
    Delete leading and trailing silent blocks : No
    Null samples used in CRC calculations : Yes
    Used interface : Native Win32 interface for Win NT & 2000
    Used output format : User Defined Encoder
    Selected bitrate : 896 kBit/s
    Quality : High
    Add ID3 tag : No
    Command line compressor : C:\Program Files\Exact Audio Copy\FLAC\FLAC.EXE
    Additional command line options : -8 -V -T "TITLE=%title%" -T "ARTIST=%artist%" -T "ALBUMARTIST=%albumartist%" -T "ALBUM=%albumtitle%" -T "DATE=%year%" -T "TRACKNUMBER=%tracknr%" -T "TRACKTOTAL=%numtracks%" -T "GENRE=%genre%" -T "COMMENT=%comment%" -T "PERFORMER=%albuminterpret%" -T "COMPOSER=%composer%" %source% -o %dest%
    TOC of the extracted CD
    Track | Start | Length | Start sector | End sector
    ---------------------------------------------------------
    1 | 0:00.33 | 2:43.07 | 33 | 12264
    2 | 2:43.40 | 5:05.60 | 12265 | 35199
    3 | 7:49.25 | 3:07.08 | 35200 | 49232
    4 | 10:56.33 | 3:29.05 | 49233 | 64912
    5 | 14:25.38 | 5:49.10 | 64913 | 91097
    6 | 20:14.48 | 3:18.12 | 91098 | 105959
    7 | 23:32.60 | 3:24.45 | 105960 | 121304
    8 | 26:57.30 | 4:26.05 | 121305 | 141259
    9 | 31:23.35 | 2:08.18 | 141260 | 150877
    10 | 33:31.53 | 4:34.35 | 150878 | 171462
    11 | 38:06.13 | 2:44.57 | 171463 | 183819
    12 | 40:50.70 | 3:56.43 | 183820 | 201562
    13 | 44:47.38 | 2:52.05 | 201563 | 214467
    14 | 47:39.43 | 2:22.45 | 214468 | 225162
    15 | 50:02.13 | 3:58.27 | 225163 | 243039
    16 | 54:00.40 | 2:20.18 | 243040 | 253557
    17 | 56:20.58 | 4:15.50 | 253558 | 272732
    18 | 60:36.33 | 1:59.15 | 272733 | 281672
    Range status and errors
    Selected range
    Filename E:\4000\[4327] Schubert – Die schöne Müllerin, Winterreise, Schwanengesang – Peter Schreier\cd3\Schubert - Die schöne Müllerin, Winterreise, Schwanengesang - Peter Schreier (Disc 3).wav
    Peak level 97.2 %
    Extraction speed 2.3 X
    Range quality 100.0 %
    Test CRC F1DB4DD4
    Copy CRC F1DB4DD4
    Copy OK
    No errors occurred
    AccurateRip summary
    Track 1 accurately ripped (confidence 4) [30E5FEB3] (AR v2)
    Track 2 accurately ripped (confidence 4) [E36C41DE] (AR v2)
    Track 3 accurately ripped (confidence 4) [3057BE7B] (AR v2)
    Track 4 accurately ripped (confidence 4) [B16F2124] (AR v2)
    Track 5 accurately ripped (confidence 4) [C1516B63] (AR v2)
    Track 6 accurately ripped (confidence 4) [35220E94] (AR v2)
    Track 7 accurately ripped (confidence 4) [6FA0883E] (AR v2)
    Track 8 accurately ripped (confidence 4) [A505578A] (AR v2)
    Track 9 accurately ripped (confidence 4) [4AD9A0E2] (AR v2)
    Track 10 accurately ripped (confidence 4) [886F4B6E] (AR v2)
    Track 11 accurately ripped (confidence 4) [3BA46C76] (AR v2)
    Track 12 accurately ripped (confidence 4) [A7858400] (AR v2)
    Track 13 accurately ripped (confidence 4) [FFADA4C6] (AR v2)
    Track 14 accurately ripped (confidence 4) [63B182BF] (AR v2)
    Track 15 accurately ripped (confidence 4) [C6DE0EB1] (AR v2)
    Track 16 accurately ripped (confidence 4) [A64D0A19] (AR v2)
    Track 17 accurately ripped (confidence 4) [1B5167C0] (AR v2)
    Track 18 accurately ripped (confidence 4) [A4F0E029] (AR v2)
    All tracks accurately ripped
    End of status report
    ==== Log checksum 0E53BCB88C82AD46F182CCC095C82981369C752D4FF88429AE2767253F2E2465 ====

    auCDtect Task Manager logs / Отчёты auCDtect Task ManagerCD 1: Die schöne Müllerin

    -----------------------
    DON'T MODIFY THIS FILE
    -----------------------
    PERFORMER: auCDtect Task Manager, ver. 1.5.1RC3 build 1.5.1.4
    Copyright (c) 2008-2010 y-soft. All rights reserved
    ANALYZER: auCDtect: CD records authenticity detector, version 0.8.2
    Copyright (c) 2004 Oleg Berngardt. All rights reserved.
    Copyright (c) 2004 Alexander Djourik. All rights reserved.
    FILE: CD 1 - Die schoene Muellerin.flac
    Size: 231215658 Hash: F7D457A32F5A5B6CA25460A9E043580A Accuracy: -m0
    Conclusion: CDDA 100%
    Signature: EBFFE0593900A3A1A7CEB26F99596F6E2884DDB6

    CD 2: Winterreise

    -----------------------
    DON'T MODIFY THIS FILE
    -----------------------
    PERFORMER: auCDtect Task Manager, ver. 1.5.1RC3 build 1.5.1.4
    Copyright (c) 2008-2010 y-soft. All rights reserved
    ANALYZER: auCDtect: CD records authenticity detector, version 0.8.2
    Copyright (c) 2004 Oleg Berngardt. All rights reserved.
    Copyright (c) 2004 Alexander Djourik. All rights reserved.
    FILE: CD 2 - Winterreise.flac
    Size: 261294614 Hash: AD2D6C62D97195C5D704019BD23D5BF8 Accuracy: -m0
    Conclusion: CDDA 100%
    Signature: 6D4CE9F0BB8FD05E8286D91D642EE9B8D5EF9223

    CD 3: Schwanengesang

    -----------------------
    DON'T MODIFY THIS FILE
    -----------------------
    PERFORMER: auCDtect Task Manager, ver. 1.5.1RC3 build 1.5.1.4
    Copyright (c) 2008-2010 y-soft. All rights reserved
    ANALYZER: auCDtect: CD records authenticity detector, version 0.8.2
    Copyright (c) 2004 Oleg Berngardt. All rights reserved.
    Copyright (c) 2004 Alexander Djourik. All rights reserved.
    FILE: CD 3 - Schwanengesang.flac
    Size: 217058490 Hash: 9FD0C898B3A236FA4C7301E78D69AE36 Accuracy: -m0
    Conclusion: CDDA 100%
    Signature: BF04B645F25AD0DC635C5E7610B8BA4A353E0D28

    CUETools logs / Отчёты CUEToolsCD 1: Die schöne Müllerin

    [CUETools log; Date: 05.08.2014 03:36:42; Version: 2.1.4]
    Pregap length 00:00:32.
    [AccurateRip ID: 002a4c2b-0275ef4f-280ebf14] found.
    Track [ CRC | V2 ] Status
    01 [3b6cae02|08f6dfb7] (00+00/32) No match
    02 [e28071b7|09ade9c2] (00+00/31) No match
    03 [aee757ad|16a60db4] (00+00/32) No match
    04 [c7f33a36|0a05e0d5] (00+00/32) No match
    05 [4dc5345c|612844c3] (00+00/32) No match
    06 [1b7d67a4|a3fae0da] (00+00/32) No match
    07 [c905aaea|8d1b852e] (00+00/32) No match
    08 [3f3750bd|558db787] (00+00/31) No match
    09 [3d96f908|97fbae7e] (00+00/32) No match
    10 [46e995a8|6d71bc0e] (00+00/32) No match
    11 [34e7a5af|da5d2de4] (00+00/32) No match
    12 [5ac4d713|e95af774] (00+00/32) No match
    13 [c32092ad|5a78cab7] (00+00/32) No match
    14 [97600f42|cb01f7cf] (00+00/32) No match
    15 [3119a2c9|73fedafc] (00+00/32) No match
    16 [53915ef9|030a9003] (00+00/32) No match
    17 [572a4179|cb7d316d] (00+00/32) No match
    18 [fd3692d5|3dcda1f5] (00+00/32) No match
    19 [6bdbfa38|983131c2] (00+00/32) No match
    20 [c0f4a204|9dacdfad] (00+00/30) No match
    Offsetted by -139:
    01 [c3258e5d] (14/32) Accurately ripped
    02 [86188884] (13/31) Accurately ripped
    03 [9f53a731] (14/32) Accurately ripped
    04 [eb882e59] (14/32) Accurately ripped
    05 [68f1d229] (14/32) Accurately ripped
    06 [e6067ec5] (14/32) Accurately ripped
    07 [b3f00b3f] (14/32) Accurately ripped
    08 [0cc586c8] (13/31) Accurately ripped
    09 [0f5903d3] (14/32) Accurately ripped
    10 [b5efbec2] (14/32) Accurately ripped
    11 [34a4c294] (14/32) Accurately ripped
    12 [b1cd9de1] (14/32) Accurately ripped
    13 [0cbe8c97] (14/32) Accurately ripped
    14 [4b12c482] (14/32) Accurately ripped
    15 [e44eb2f3] (14/32) Accurately ripped
    16 [5ac12a50] (14/32) Accurately ripped
    17 [dd0cafef] (14/32) Accurately ripped
    18 [9072a718] (14/32) Accurately ripped
    19 [6299519c] (14/32) Accurately ripped
    20 [bc1a4510] (13/30) Accurately ripped
    Offsetted by 664:
    01 [5372ee4d] (02/32) Accurately ripped
    02 [bca1a83b] (02/31) Accurately ripped
    03 [90f508a0] (02/32) Accurately ripped
    04 [e28ed542] (02/32) Accurately ripped
    05 [f3ee9804] (02/32) Accurately ripped
    06 [55ffcd92] (02/32) Accurately ripped
    07 [7b2591e1] (02/32) Accurately ripped
    08 [1f78e3c9] (02/31) Accurately ripped
    09 [7a68bf35] (02/32) Accurately ripped
    10 [c5dd3c88] (02/32) Accurately ripped
    11 [fa671d9e] (02/32) Accurately ripped
    12 [6ef91073] (02/32) Accurately ripped
    13 [54d5aa56] (02/32) Accurately ripped
    14 [e20274c0] (02/32) Accurately ripped
    15 [e0ae411f] (02/32) Accurately ripped
    16 [464f6607] (02/32) Accurately ripped
    17 [f940b83d] (02/32) Accurately ripped
    18 [0ae27317] (02/32) Accurately ripped
    19 [2e03d7c1] (02/32) Accurately ripped
    20 [19a6b2fb] (02/30) Accurately ripped
    Offsetted by -664:
    01 [5daaa0da] (00/32) No match (V2 was not tested)
    02 [4887ff68] (00/31) No match (V2 was not tested)
    03 [ecdb7118] (00/32) No match (V2 was not tested)
    04 [635dfbe7] (00/32) No match (V2 was not tested)
    05 [1b801868] (00/32) No match (V2 was not tested)
    06 [2e97df63] (00/32) No match (V2 was not tested)
    07 [6f89dbcb] (00/32) No match (V2 was not tested)
    08 [939d90df] (00/31) No match (V2 was not tested)
    09 [96b19fdc] (00/32) No match (V2 was not tested)
    10 [4d00134b] (00/32) No match (V2 was not tested)
    11 [45bbffda] (00/32) No match (V2 was not tested)
    12 [fd0acca9] (00/32) No match (V2 was not tested)
    13 [67e0de33] (00/32) No match (V2 was not tested)
    14 [a5428339] (00/32) No match (V2 was not tested)
    15 [1662e29b] (00/32) No match (V2 was not tested)
    16 [a2345070] (00/32) No match (V2 was not tested)
    17 [4e1da542] (00/32) No match (V2 was not tested)
    18 [7fe3dc26] (00/32) No match (V2 was not tested)
    19 [b21972c0] (00/32) No match (V2 was not tested)
    20 [f68a5831] (00/30) No match (V2 was not tested)
    Track Peak [ CRC32 ] [W/O NULL] [ LOG ]
    -- 96,6 [195183AD] [1040939E] CRC32
    01 43,6 [7CC0DB0F] [7CB4B78C]
    02 30,8 [74985C8B] [E0C4ADDC]
    03 49,1 [2B4A5DF7] [2F182637]
    04 46,7 [6028980E] [A0D1C850]
    05 60,4 [BAE38E90] [93AC4687]
    06 31,4 [D5C6DC0E] [9F05FDDC]
    07 89,6 [E396E3E4] [A884CD07]
    08 31,6 [988EE2D1] [B9C42781]
    09 31,6 [B7F18837] [54B7FE0A]
    10 36,5 [194E2665] [BE0076D1]
    11 67,8 [CE103CA4] [CBBEAC47]
    12 37,0 [B79236DC] [C67EE1B2]
    13 37,1 [B9EFC3D2] [41B7E6FE]
    14 96,6 [26E0DFEF] [9CECA5A0]
    15 65,0 [CC4DAE1C] [5608ED8B]
    16 28,3 [60B4B9F5] [9486864B]
    17 65,0 [6F1451E5] [823A5FD2]
    18 57,2 [C7EC4097] [9AD81AA3]
    19 31,0 [A54F3E77] [768BE844]
    20 38,0 [667D417E] [4FAA0736]

    CD 2: Winterreise

    [CUETools log; Date: 05.08.2014 03:36:57; Version: 2.1.4]
    Pregap length 00:00:32.
    [AccurateRip ID: 0040e5f9-04504003-4910f518] found.
    Track [ CRC | V2 ] Status
    01 [17cff3ce|c1720225] (03+07/12) Accurately ripped
    02 [36d62ae8|45680585] (03+07/12) Accurately ripped
    03 [a311212a|2a861e23] (03+07/12) Accurately ripped
    04 [ab0f5561|6d205ed9] (03+07/12) Accurately ripped
    05 [e8f14855|6a4f8e81] (03+07/12) Accurately ripped
    06 [45d5501a|19ca1b42] (03+07/12) Accurately ripped
    07 [e085dfb8|21cfe730] (03+07/12) Accurately ripped
    08 [ab64e7c0|4c406acb] (03+07/12) Accurately ripped
    09 [025925e0|05dc61e6] (03+07/12) Accurately ripped
    10 [c7078cf8|dc24ca2f] (03+07/12) Accurately ripped
    11 [cf2d1620|ce6d9c18] (03+07/12) Accurately ripped
    12 [b31767f0|9ad7744e] (03+07/12) Accurately ripped
    13 [37cf359b|b20001cc] (03+07/12) Accurately ripped
    14 [b5306a13|f956a3d0] (03+07/12) Accurately ripped
    15 [4360cd33|f5b15f67] (03+07/12) Accurately ripped
    16 [e1dd8f56|ae7aa883] (03+07/12) Accurately ripped
    17 [916defdd|b090e3cf] (03+06/11) Accurately ripped
    18 [25a3baf8|c477052b] (03+07/12) Accurately ripped
    19 [f69b72f0|ee177d69] (03+07/12) Accurately ripped
    20 [9e94ba84|9123864a] (03+07/12) Accurately ripped
    21 [5807b744|c1ff6f17] (03+07/12) Accurately ripped
    22 [25084659|690a5c04] (03+07/12) Accurately ripped
    23 [59279f2a|f54528d5] (03+07/12) Accurately ripped
    24 [b35586c9|f2266483] (03+07/12) Accurately ripped
    Offsetted by -664:
    01 [1d85dadf] (00/12) No match (V2 was not tested)
    02 [04fe2d3e] (00/12) No match (V2 was not tested)
    03 [994a6c59] (00/12) No match (V2 was not tested)
    04 [76f010ff] (00/12) No match (V2 was not tested)
    05 [0e94c4e4] (00/12) No match (V2 was not tested)
    06 [c665dccc] (00/12) No match (V2 was not tested)
    07 [4c962179] (00/12) No match (V2 was not tested)
    08 [b08df057] (00/12) No match (V2 was not tested)
    09 [3668f5df] (00/12) No match (V2 was not tested)
    10 [c2f00832] (00/12) No match (V2 was not tested)
    11 [b9bc51e5] (00/12) No match (V2 was not tested)
    12 [605a0747] (00/12) No match (V2 was not tested)
    13 [bee34d91] (00/12) No match (V2 was not tested)
    14 [e436eea2] (00/12) No match (V2 was not tested)
    15 [e88ffa91] (00/12) No match (V2 was not tested)
    16 [3cbd1cef] (00/12) No match (V2 was not tested)
    17 [8117a989] (00/11) No match (V2 was not tested)
    18 [e8a25934] (00/12) No match (V2 was not tested)
    19 [1532d5f4] (00/12) No match (V2 was not tested)
    20 [45285bea] (00/12) No match (V2 was not tested)
    21 [5c384693] (00/12) No match (V2 was not tested)
    22 [a1e995ce] (00/12) No match (V2 was not tested)
    23 [1cdb2d33] (00/12) No match (V2 was not tested)
    24 [0c3c57c0] (00/12) No match (V2 was not tested)
    Track Peak [ CRC32 ] [W/O NULL] [ LOG ]
    -- 97,8 [AFD5E883] [EDD150A9] CRC32
    01 42,9 [B725083F] [7A73479E]
    02 95,8 [5E7C3BCA] [6778CC9B]
    03 97,3 [24A833C5] [489F686D]
    04 96,7 [E2F3C9F0] [632E1A47]
    05 63,9 [50F339F5] [AC68585C]
    06 96,2 [D7265304] [8B650ADF]
    07 94,3 [1878E18A] [F033CD46]
    08 96,3 [46D54649] [D19D8EBB]
    09 65,7 [73FC9A9A] [3D076576]
    10 96,2 [97B835AA] [CC44F691]
    11 97,1 [9E0EF2A3] [76890324]
    12 97,8 [90543D8F] [ADBBE660]
    13 96,5 [69B5E2B9] [E7871F4C]
    14 64,1 [9E12C4B4] [39F5B8FA]
    15 76,6 [2C2AEAF6] [1F2DB43C]
    16 87,3 [9A0B5A5B] [4B8663EF]
    17 43,9 [3B06216D] [86BA0C26]
    18 96,7 [BF6F4268] [A640CF8C]
    19 36,3 [A208822E] [DD0CB587]
    20 63,0 [27D50744] [B304D107]
    21 96,9 [67263558] [96ED4A26]
    22 89,5 [35369C41] [B8512771]
    23 48,8 [56B63203] [19210055]
    24 24,8 [B8B98824] [21F5B3FF]

    CD 3: Schwanengesang

    [CUETools log; Date: 05.08.2014 03:37:10; Version: 2.1.4]
    Pregap length 00:00:33.
    [AccurateRip ID: 002b062a-02384804-050eab12] found.
    Track [ CRC | V2 ] Status
    01 [fda52c1b|30e5feb3] (02+04/32) Accurately ripped
    02 [badfcb0f|e36c41de] (02+04/30) Accurately ripped
    03 [474e4b59|3057be7b] (02+04/34) Accurately ripped
    04 [74a73f37|b16f2124] (02+04/34) Accurately ripped
    05 [946bc8b3|c1516b63] (02+04/34) Accurately ripped
    06 [5ec77b0a|35220e94] (02+04/34) Accurately ripped
    07 [398231a0|6fa0883e] (02+04/34) Accurately ripped
    08 [8649de0c|a505578a] (02+04/34) Accurately ripped
    09 [43995d0f|4ad9a0e2] (02+04/34) Accurately ripped
    10 [b4ee0d3d|886f4b6e] (02+04/34) Accurately ripped
    11 [c679c755|3ba46c76] (02+04/34) Accurately ripped
    12 [db99aeb3|a7858400] (02+04/34) Accurately ripped
    13 [f84b6317|ffada4c6] (02+04/33) Accurately ripped
    14 [1d1d3136|63b182bf] (02+04/34) Accurately ripped
    15 [8e8cdc63|c6de0eb1] (02+04/33) Accurately ripped
    16 [4fc7c9b6|a64d0a19] (02+04/34) Accurately ripped
    17 [23452838|1b5167c0] (02+04/33) Accurately ripped
    18 [9b5a4903|a4f0e029] (02+04/33) Accurately ripped
    Offsetted by 1328:
    01 [78248999] (09/32) Accurately ripped
    02 [f8502765] (07/30) Accurately ripped
    03 [637c730c] (09/34) Accurately ripped
    04 [3d32deaf] (09/34) Accurately ripped
    05 [693fbf24] (09/34) Accurately ripped
    06 [689bffe0] (09/34) Accurately ripped
    07 [091f57b4] (09/34) Accurately ripped
    08 [6b667d06] (09/34) Accurately ripped
    09 [6204cd47] (09/34) Accurately ripped
    10 [4c5f20d3] (09/34) Accurately ripped
    11 [9510d391] (09/34) Accurately ripped
    12 [9d6e5fd3] (09/34) Accurately ripped
    13 [3c055520] (08/33) Accurately ripped
    14 [a8981c24] (09/34) Accurately ripped
    15 [e65944a9] (08/33) Accurately ripped
    16 [6a18159a] (09/34) Accurately ripped
    17 [25b1e3db] (09/33) Accurately ripped
    18 [87b130d5] (09/33) Accurately ripped
    Offsetted by 664:
    01 [dfa0cd32] (00/32) No match (V2 was not tested)
    02 [f5013d73] (00/30) No match (V2 was not tested)
    03 [a39e2c79] (00/34) No match (V2 was not tested)
    04 [95ce7aef] (00/34) No match (V2 was not tested)
    05 [c13701e5] (00/34) No match (V2 was not tested)
    06 [e01b0aa5] (00/34) No match (V2 was not tested)
    07 [186d05a0] (00/34) No match (V2 was not tested)
    08 [3bdf728d] (00/34) No match (V2 was not tested)
    09 [26ca0618] (00/34) No match (V2 was not tested)
    10 [be63d86e] (00/34) No match (V2 was not tested)
    11 [28f6fc1d] (00/34) No match (V2 was not tested)
    12 [c9101c9a] (00/34) No match (V2 was not tested)
    13 [54f809b4] (00/33) No match (V2 was not tested)
    14 [d31e29e1] (00/34) No match (V2 was not tested)
    15 [5d2e1167] (00/33) No match (V2 was not tested)
    16 [aa3404cc] (00/34) No match (V2 was not tested)
    17 [1e517cd7] (00/33) No match (V2 was not tested)
    18 [0906d1b0] (00/33) No match (V2 was not tested)
    Track Peak [ CRC32 ] [W/O NULL] [ LOG ]
    -- 97,2 [F1DB4DD4] [F7611146] CRC32
    01 46,2 [48DF4376] [9DA734A8]
    02 65,0 [D73DBF70] [996D51E8]
    03 81,9 [15375159] [92C26D2C]
    04 51,9 [7DF6A448] [2D5CD973]
    05 91,3 [0891B2B1] [E471BBA8]
    06 50,9 [B8993EE1] [D5EB194F]
    07 96,7 [C6E00674] [14C9C470]
    08 80,0 [51EF2040] [66F5623E]
    09 40,5 [6D158884] [D1F65F7C]
    10 64,0 [BE377796] [EBE8ADDF]
    11 97,2 [E08A30BE] [4CE99737]
    12 88,1 [95368992] [D3E070A5]
    13 67,7 [779B610D] [EE05E459]
    14 88,0 [4E9AF07C] [E577C241]
    15 67,4 [07283240] [37030E40]
    16 38,7 [60EDF43B] [ED9B691A]
    17 54,1 [66A460A2] [02641B23]
    18 69,1 [ECA8BAAC] [6902074B]

    CUE sheetsCD 1: Die schöne Müllerin

    TITLE "Franz Schubert: Die schöne Müllerin • Winterreise • Schwanengesang"
    PERFORMER "Peter Schreier"
    REM GENRE Classical
    REM DISCID 280EBF14
    REM COMMENT "ExactAudioCopy v1.0b3"
    CATALOG 0028943041423
    FILE "CD 1 - Die schoene Muellerin.flac" WAVE
    TRACK 01 AUDIO
    TITLE "Die schöne Müllerin, D. 795: Nr. 1. Das Wandern"
    PERFORMER "Peter Schreier (tenor), András Schiff (piano)"
    REM DATE 1989
    INDEX 00 00:00:00
    INDEX 01 00:00:32
    TRACK 02 AUDIO
    TITLE "Die schöne Müllerin, D. 795: Nr. 2. Wohin?"
    PERFORMER "Peter Schreier (tenor), András Schiff (piano)"
    REM DATE 1989
    INDEX 01 02:48:50
    TRACK 03 AUDIO
    TITLE "Die schöne Müllerin, D. 795: Nr. 3. Halt!"
    PERFORMER "Peter Schreier (tenor), András Schiff (piano)"
    REM DATE 1989
    INDEX 01 05:13:20
    TRACK 04 AUDIO
    TITLE "Die schöne Müllerin, D. 795: Nr. 4. Danksagung an den Bach"
    PERFORMER "Peter Schreier (tenor), András Schiff (piano)"
    REM DATE 1989
    INDEX 01 06:46:32
    TRACK 05 AUDIO
    TITLE "Die schöne Müllerin, D. 795: Nr. 5. Am Feierabend"
    PERFORMER "Peter Schreier (tenor), András Schiff (piano)"
    REM DATE 1989
    INDEX 01 09:05:07
    TRACK 06 AUDIO
    TITLE "Die schöne Müllerin, D. 795: Nr. 6. Der Neugerige"
    PERFORMER "Peter Schreier (tenor), András Schiff (piano)"
    REM DATE 1989
    INDEX 01 11:35:07
    TRACK 07 AUDIO
    TITLE "Die schöne Müllerin, D. 795: Nr. 7. Ungeduld"
    PERFORMER "Peter Schreier (tenor), András Schiff (piano)"
    REM DATE 1989
    INDEX 01 15:30:32
    TRACK 08 AUDIO
    TITLE "Die schöne Müllerin, D. 795: Nr. 8. Morgengruss"
    PERFORMER "Peter Schreier (tenor), András Schiff (piano)"
    REM DATE 1989
    INDEX 01 18:28:32
    TRACK 09 AUDIO
    TITLE "Die schöne Müllerin, D. 795: Nr. 9. Des Müllers Blumen"
    PERFORMER "Peter Schreier (tenor), András Schiff (piano)"
    REM DATE 1989
    INDEX 01 22:34:57
    TRACK 10 AUDIO
    TITLE "Die schöne Müllerin, D. 795: Nr. 10. Tränenregen"
    PERFORMER "Peter Schreier (tenor), András Schiff (piano)"
    REM DATE 1989
    INDEX 01 26:07:70
    TRACK 11 AUDIO
    TITLE "Die schöne Müllerin, D. 795: Nr. 11. Mein!"
    PERFORMER "Peter Schreier (tenor), András Schiff (piano)"
    REM DATE 1989
    INDEX 01 30:42:20
    TRACK 12 AUDIO
    TITLE "Die schöne Müllerin, D. 795: Nr. 12. Pause"
    PERFORMER "Peter Schreier (tenor), András Schiff (piano)"
    REM DATE 1989
    INDEX 00 33:05:07
    INDEX 01 33:08:70
    TRACK 13 AUDIO
    TITLE "Die schöne Müllerin, D. 795: Nr. 13. Mit dem grünen Lautenbande"
    PERFORMER "Peter Schreier (tenor), András Schiff (piano)"
    REM DATE 1989
    INDEX 01 38:16:20
    TRACK 14 AUDIO
    TITLE "Die schöne Müllerin, D. 795: Nr. 14. Der Jäger"
    PERFORMER "Peter Schreier (tenor), András Schiff (piano)"
    REM DATE 1989
    INDEX 01 40:35:07
    TRACK 15 AUDIO
    TITLE "Die schöne Müllerin, D. 795: Nr. 15. Eifersucht und Stolz"
    PERFORMER "Peter Schreier (tenor), András Schiff (piano)"
    REM DATE 1989
    INDEX 01 41:44:12
    TRACK 16 AUDIO
    TITLE "Die schöne Müllerin, D. 795: Nr. 16. Die liebe Farbe"
    PERFORMER "Peter Schreier (tenor), András Schiff (piano)"
    REM DATE 1989
    INDEX 01 43:23:20
    TRACK 17 AUDIO
    TITLE "Die schöne Müllerin, D. 795: Nr. 17. Die böse Farbe"
    PERFORMER "Peter Schreier (tenor), András Schiff (piano)"
    REM DATE 1989
    INDEX 01 47:25:07
    TRACK 18 AUDIO
    TITLE "Die schöne Müllerin, D. 795: Nr. 18. Trockne Blumen"
    PERFORMER "Peter Schreier (tenor), András Schiff (piano)"
    REM DATE 1989
    INDEX 01 49:35:20
    TRACK 19 AUDIO
    TITLE "Die schöne Müllerin, D. 795: Nr. 19. Der Müller und der Bach"
    PERFORMER "Peter Schreier (tenor), András Schiff (piano)"
    REM DATE 1989
    INDEX 00 52:57:32
    INDEX 01 52:58:32
    TRACK 20 AUDIO
    TITLE "Die schöne Müllerin, D. 795: Nr. 20. Des Baches Wiegenlied"
    PERFORMER "Peter Schreier (tenor), András Schiff (piano)"
    REM DATE 1989
    INDEX 01 57:05:32

    CD 2: Winterreise

    TITLE "Franz Schubert: Die schöne Müllerin • Winterreise • Schwanengesang"
    PERFORMER "Peter Schreier"
    REM GENRE Classical
    REM DISCID 4910F518
    REM COMMENT "ExactAudioCopy v1.0b3"
    CATALOG 0028943612227
    FILE "CD 2 - Winterreise.flac" WAVE
    TRACK 01 AUDIO
    TITLE "Winterreise, D. 911: Nr. 1. Gute Nacht"
    PERFORMER "Peter Schreier (tenor), András Schiff (piano)"
    REM DATE 1991
    INDEX 00 00:00:00
    INDEX 01 00:00:32
    TRACK 02 AUDIO
    TITLE "Winterreise, D. 911: Nr. 2. Die Wetterfahne"
    PERFORMER "Peter Schreier (tenor), András Schiff (piano)"
    REM DATE 1991
    INDEX 01 05:26:57
    TRACK 03 AUDIO
    TITLE "Winterreise, D. 911: Nr. 3. Gefrorne Tränen"
    PERFORMER "Peter Schreier (tenor), András Schiff (piano)"
    REM DATE 1991
    INDEX 01 07:15:32
    TRACK 04 AUDIO
    TITLE "Winterreise, D. 911: Nr. 4. Erstarrung"
    PERFORMER "Peter Schreier (tenor), András Schiff (piano)"
    REM DATE 1991
    INDEX 01 09:39:32
    TRACK 05 AUDIO
    TITLE "Winterreise, D. 911: Nr. 5. Der Lindenbaum"
    PERFORMER "Peter Schreier (tenor), András Schiff (piano)"
    REM DATE 1991
    INDEX 00 12:16:57
    INDEX 01 12:18:45
    TRACK 06 AUDIO
    TITLE "Winterreise, D. 911: Nr. 6. Wasserflut"
    PERFORMER "Peter Schreier (tenor), András Schiff (piano)"
    REM DATE 1991
    INDEX 00 17:18:32
    INDEX 01 17:19:70
    TRACK 07 AUDIO
    TITLE "Winterreise, D. 911: Nr. 7. Auf dem Flusse"
    PERFORMER "Peter Schreier (tenor), András Schiff (piano)"
    REM DATE 1991
    INDEX 01 21:31:45
    TRACK 08 AUDIO
    TITLE "Winterreise, D. 911: Nr. 8. Rückblick"
    PERFORMER "Peter Schreier (tenor), András Schiff (piano)"
    REM DATE 1991
    INDEX 01 24:58:70
    TRACK 09 AUDIO
    TITLE "Winterreise, D. 911: Nr. 9. Irrlicht"
    PERFORMER "Peter Schreier (tenor), András Schiff (piano)"
    REM DATE 1991
    INDEX 00 27:07:70
    INDEX 01 27:11:07
    TRACK 10 AUDIO
    TITLE "Winterreise, D. 911: Nr. 10. Rast"
    PERFORMER "Peter Schreier (tenor), András Schiff (piano)"
    REM DATE 1991
    INDEX 00 30:01:57
    INDEX 01 30:03:20
    TRACK 11 AUDIO
    TITLE "Winterreise, D. 911: Nr. 11. Frühlingstraum"
    PERFORMER "Peter Schreier (tenor), András Schiff (piano)"
    REM DATE 1991
    INDEX 01 33:22:45
    TRACK 12 AUDIO
    TITLE "Winterreise, D. 911: Nr. 12. Einsamkeit"
    PERFORMER "Peter Schreier (tenor), András Schiff (piano)"
    REM DATE 1991
    INDEX 00 37:23:45
    INDEX 01 37:25:07
    TRACK 13 AUDIO
    TITLE "Winterreise, D. 911: Nr. 13. Die Post"
    PERFORMER "Peter Schreier (tenor), András Schiff (piano)"
    REM DATE 1991
    INDEX 00 40:18:70
    INDEX 01 40:23:57
    TRACK 14 AUDIO
    TITLE "Winterreise, D. 911: Nr. 14. Der greise Kopf"
    PERFORMER "Peter Schreier (tenor), András Schiff (piano)"
    REM DATE 1991
    INDEX 00 42:39:57
    INDEX 01 42:40:70
    TRACK 15 AUDIO
    TITLE "Winterreise, D. 911: Nr. 15. Die Krähe"
    PERFORMER "Peter Schreier (tenor), András Schiff (piano)"
    REM DATE 1991
    INDEX 01 45:47:70
    TRACK 16 AUDIO
    TITLE "Winterreise, D. 911: Nr. 16. Letzte Hoffnung"
    PERFORMER "Peter Schreier (tenor), András Schiff (piano)"
    REM DATE 1991
    INDEX 01 47:13:57
    TRACK 17 AUDIO
    TITLE "Winterreise, D. 911: Nr. 17. Im Dorfe"
    PERFORMER "Peter Schreier (tenor), András Schiff (piano)"
    REM DATE 1991
    INDEX 00 49:34:20
    INDEX 01 49:35:70
    TRACK 18 AUDIO
    TITLE "Winterreise, D. 911: Nr. 18. Der stürmische Morgen"
    PERFORMER "Peter Schreier (tenor), András Schiff (piano)"
    REM DATE 1991
    INDEX 00 52:30:32
    INDEX 01 52:31:32
    TRACK 19 AUDIO
    TITLE "Winterreise, D. 911: Nr. 19. Täuschung"
    PERFORMER "Peter Schreier (tenor), András Schiff (piano)"
    REM DATE 1991
    INDEX 01 53:28:65
    TRACK 20 AUDIO
    TITLE "Winterreise, D. 911: Nr. 20. Der Wegweiser"
    PERFORMER "Peter Schreier (tenor), András Schiff (piano)"
    REM DATE 1991
    INDEX 00 55:03:07
    INDEX 01 55:04:45
    TRACK 21 AUDIO
    TITLE "Winterreise, D. 911: Nr. 21. Das Wirtshaus"
    PERFORMER "Peter Schreier (tenor), András Schiff (piano)"
    REM DATE 1991
    INDEX 00 59:39:70
    INDEX 01 59:41:32
    TRACK 22 AUDIO
    TITLE "Winterreise, D. 911: Nr. 22. Mut!"
    PERFORMER "Peter Schreier (tenor), András Schiff (piano)"
    REM DATE 1991
    INDEX 00 64:32:07
    INDEX 01 64:34:20
    TRACK 23 AUDIO
    TITLE "Winterreise, D. 911: Nr. 23. Die Nebensonnen"
    PERFORMER "Peter Schreier (tenor), András Schiff (piano)"
    REM DATE 1991
    INDEX 00 66:10:20
    INDEX 01 66:11:20
    TRACK 24 AUDIO
    TITLE "Winterreise, D. 911: Nr. 24. Der Leiermann"
    PERFORMER "Peter Schreier (tenor), András Schiff (piano)"
    REM DATE 1991
    INDEX 00 68:57:57
    INDEX 01 69:00:32

    CD 3: Schwanengesang

    TITLE "Franz Schubert: Die schöne Müllerin • Winterreise • Schwanengesang"
    PERFORMER "Peter Schreier"
    REM GENRE Classical
    REM DISCID 050EAB12
    REM COMMENT "ExactAudioCopy v1.0b3"
    CATALOG 0028942561229
    FILE "CD 3 - Schwanengesang.flac" WAVE
    TRACK 01 AUDIO
    TITLE "Schwanengesang, D. 957: Nr. 1. Liebesbotschaft"
    PERFORMER "Peter Schreier (tenor), András Schiff (piano)"
    REM DATE 1989
    INDEX 00 00:00:00
    INDEX 01 00:00:33
    TRACK 02 AUDIO
    TITLE "Schwanengesang, D. 957: Nr. 2. Kriegers Ahnung"
    PERFORMER "Peter Schreier (tenor), András Schiff (piano)"
    REM DATE 1989
    INDEX 00 02:40:70
    INDEX 01 02:43:40
    TRACK 03 AUDIO
    TITLE "Schwanengesang, D. 957: Nr. 3. Frühlingssehnsucht"
    PERFORMER "Peter Schreier (tenor), András Schiff (piano)"
    REM DATE 1989
    INDEX 00 07:45:58
    INDEX 01 07:49:25
    TRACK 04 AUDIO
    TITLE "Herbst, D. 945"
    PERFORMER "Peter Schreier (tenor), András Schiff (piano)"
    REM DATE 1989
    INDEX 00 10:53:18
    INDEX 01 10:56:33
    TRACK 05 AUDIO
    TITLE "Schwanengesang, D. 957: Nr. 6. In der Ferne"
    PERFORMER "Peter Schreier (tenor), András Schiff (piano)"
    REM DATE 1989
    INDEX 00 14:22:13
    INDEX 01 14:25:38
    TRACK 06 AUDIO
    TITLE "Schwanengesang, D. 957: Nr. 4. Ständchen"
    PERFORMER "Peter Schreier (tenor), András Schiff (piano)"
    REM DATE 1989
    INDEX 00 20:09:38
    INDEX 01 20:14:48
    TRACK 07 AUDIO
    TITLE "Schwanengesang, D. 957: Nr. 5. Aufenthalt"
    PERFORMER "Peter Schreier (tenor), András Schiff (piano)"
    REM DATE 1989
    INDEX 00 23:29:50
    INDEX 01 23:32:60
    TRACK 08 AUDIO
    TITLE "Schwanengesang, D. 957: Nr. 7. Abschied"
    PERFORMER "Peter Schreier (tenor), András Schiff (piano)"
    REM DATE 1989
    INDEX 00 26:53:28
    INDEX 01 26:57:30
    TRACK 09 AUDIO
    TITLE "Schwanengesang, D. 957: Nr. 10. Das Fischermädchen"
    PERFORMER "Peter Schreier (tenor), András Schiff (piano)"
    REM DATE 1989
    INDEX 00 31:15:05
    INDEX 01 31:23:35
    TRACK 10 AUDIO
    TITLE "Schwanengesang, D. 957: Nr. 12. Am Meer"
    PERFORMER "Peter Schreier (tenor), András Schiff (piano)"
    REM DATE 1989
    INDEX 00 33:25:43
    INDEX 01 33:31:53
    TRACK 11 AUDIO
    TITLE "Schwanengesang, D. 957: Nr. 11. Die Stadt"
    PERFORMER "Peter Schreier (tenor), András Schiff (piano)"
    REM DATE 1989
    INDEX 00 38:00:65
    INDEX 01 38:06:13
    TRACK 12 AUDIO
    TITLE "Schwanengesang, D. 957: Nr. 13. Der Doppelgänger"
    PERFORMER "Peter Schreier (tenor), András Schiff (piano)"
    REM DATE 1989
    INDEX 00 40:45:55
    INDEX 01 40:50:70
    TRACK 13 AUDIO
    TITLE "Schwanengesang, D. 957: Nr. 9. Ihr Bild"
    PERFORMER "Peter Schreier (tenor), András Schiff (piano)"
    REM DATE 1989
    INDEX 00 44:44:20
    INDEX 01 44:47:38
    TRACK 14 AUDIO
    TITLE "Schwanengesang, D. 957: Nr. 8. Der Atlas"
    PERFORMER "Peter Schreier (tenor), András Schiff (piano)"
    REM DATE 1989
    INDEX 00 47:33:05
    INDEX 01 47:39:43
    TRACK 15 AUDIO
    TITLE "Schwanengesang, D. 957: Nr. 14. Die Taubenpost"
    PERFORMER "Peter Schreier (tenor), András Schiff (piano)"
    REM DATE 1989
    INDEX 00 49:51:55
    INDEX 01 50:02:13
    TRACK 16 AUDIO
    TITLE "Der Wanderer an den Mond, D. 870"
    PERFORMER "Peter Schreier (tenor), András Schiff (piano)"
    REM DATE 1989
    INDEX 00 53:55:00
    INDEX 01 54:00:40
    TRACK 17 AUDIO
    TITLE "Am Fenster, D. 878"
    PERFORMER "Peter Schreier (tenor), András Schiff (piano)"
    REM DATE 1989
    INDEX 00 56:16:18
    INDEX 01 56:20:58
    TRACK 18 AUDIO
    TITLE "Bei dir allein!, D. 866 Nr. 2"
    PERFORMER "Peter Schreier (tenor), András Schiff (piano)"
    REM DATE 1989
    INDEX 00 60:31:48
    INDEX 01 60:36:33
    -
    Franz Schubert — каталог раздач на rutracker.orgВсе мои раздачи / All my releases



  • Показать сообщения:    

    Текущее время: 09-Дек 08:46

    Часовой пояс: UTC + 3


    Вы не можете начинать темы
    Вы не можете отвечать на сообщения
    Вы не можете редактировать свои сообщения
    Вы не можете удалять свои сообщения
    Вы не можете голосовать в опросах
    Вы не можете прикреплять файлы к сообщениям
    Вы не можете скачивать файлы