По Волне Моей Памяти. Золотой Винил (Олег Нестеров) ч.36 [2011-2014. Телепередача. IPTVRip]


Статистика раздачи [Обновить пиров]
Размер:  4.32 GB   |    Зарегистрирован:  8 месяцев 15 дней   |    Скачан:  0 раз

Полного источника не было: Никогда

Личеров:  6  [  0 KB/s  ]   Подробная статистика пиров
 
   
 
 
 

[Цитировать]

По Волне Моей Памяти. Золотой Винил (Олег Нестеров) ч.36- Год выпуска: 2011-2014 Страна: Россия Жанр: Телепередача-Продолжительность: 8 передач (см. "Тех. данные файлов")
Режиссер: Канал "ВРЕМЯ" В ролях: Олег Нестеров-Описание: Авторская программа Олега Нестерова. Это - непринужденный разговор о любимой музыке, воспитавшей несколько поколений - с ее создателями-Список передач: По Волне Моей Памяти: А.Могилевский. А.Трошин. И.Бриль. Л.Петрушевская. Р.Власенко. С.Рыженко. Ю.Мартынов. Золотой Винил: Остров Погибших Кораблей-Качество: IPTVRip Формат: AVI
Видео кодек: XviD Аудио кодек: MP3-Видео: 704x512 ~1600 Kbps 25.00 fps Аудио: MPEG Audio Layer 3 48000 Hz stereo 128 Kbps CBR

Тех. данные файлов:

А.Могилевский. По Волне Моей Памяти. 704x512 1601 Kbps 00:47:17
А.Трошин. По Волне Моей Памяти. 704x512 1603 Kbps 00:53:23
И.Бриль. По Волне Моей Памяти. 704x512 1601 Kbps 00:45:43
Л.Петрушевская. По Волне Моей Памяти. 704x512 1601 Kbps 00:50:26
Р.Власенко. По Волне Моей Памяти. 704x512 1601 Kbps 00:48:04
С.Рыженко. По Волне Моей Памяти. 704x512 1601 Kbps 00:51:09
Ю.Мартынов. По Волне Моей Памяти. 704x512 1601 Kbps 00:44:11
Золотой Винил. Остров Погибших Кораблей. 704x512 1601 Kbps 00:15:04

Скриншоты: кликните для увеличения


MediaInfo:

General
Format : AVI
Format/Info : Audio Video Interleave
File size : 588 MiB
Duration : 47mn 16s
Overall bit rate : 1 739 Kbps
Writing application : VirtualDubMod 1.5.10.3 | www.virtualdub-fr.org || (build 2550/release)
Writing library : VirtualDubMod build 2550/release
Video
ID : 0
Format : MPEG-4 Visual
Format profile : Advanced Simple@L5
Format settings, BVOP : Yes
Format settings, QPel : No
Format settings, GMC : No warppoints
Format settings, Matrix : Default (MPEG)
Codec ID : XVID
Codec ID/Hint : XviD
Duration : 47mn 16s
Bit rate : 1 601 Kbps
Width : 704 pixels
Height : 512 pixels
Display aspect ratio : 1.375
Frame rate : 25.000 fps
Color space : YUV
Chroma subsampling : 4:2:0
Bit depth : 8 bits
Scan type : Progressive
Compression mode : Lossy
Bits/(Pixel*Frame) : 0.178
Stream size : 541 MiB (92%)
Writing library : XviD 1.2.1 (UTC 2008-12-04)
Audio
ID : 1
Format : MPEG Audio
Format version : Version 1
Format profile : Layer 3
Codec ID : 55
Codec ID/Hint : MP3
Duration : 47mn 16s
Bit rate mode : Constant
Bit rate : 128 Kbps
Channel(s) : 2 channels
Sampling rate : 48.0 KHz
Compression mode : Lossy
Stream size : 43.3 MiB (7%)
Alignment : Aligned on interleaves
Interleave, duration : 40 ms (1.00 video frame)
Interleave, preload duration : 504 ms
Writing library : LAME3.99r
Encoding settings : -m s -V 4 -q 0 -lowpass 17 -b 128

Все передачи "По Волне Моей Памяти":

По Волне Моей Памяти (Олег Нестеров) ч.1
По Волне Моей Памяти (Олег Нестеров) ч.2
По Волне Моей Памяти (Олег Нестеров) ч.3
По Волне Моей Памяти (Олег Нестеров) ч.4
По Волне Моей Памяти (Олег Нестеров) ч.5
По Волне Моей Памяти (Олег Нестеров) ч.6
По Волне Моей Памяти (Олег Нестеров) ч.7
По Волне Моей Памяти (Олег Нестеров) ч.8
По Волне Моей Памяти (Олег Нестеров) ч.9
По Волне Моей Памяти (Олег Нестеров) ч.10
По Волне Моей Памяти (Олег Нестеров) ч.11
По Волне Моей Памяти (Олег Нестеров) ч.12
По Волне Моей Памяти (Олег Нестеров) ч.13
По Волне Моей Памяти (Олег Нестеров) ч.14
По Волне Моей Памяти (Олег Нестеров) ч.15
По Волне Моей Памяти (Олег Нестеров) ч.16
По Волне Моей Памяти (Олег Нестеров) ч.17
По Волне Моей Памяти (Олег Нестеров) ч.18
По Волне Моей Памяти (Олег Нестеров) ч.19
По Волне Моей Памяти (Олег Нестеров) ч.20
По Волне Моей Памяти (Олег Нестеров) ч.21
По Волне Моей Памяти (Олег Нестеров) ч.22
По Волне Моей Памяти (Олег Нестеров) ч.23
По Волне Моей Памяти (Олег Нестеров) ч.24
По Волне Моей Памяти (Олег Нестеров) ч.25
По Волне Моей Памяти (Олег Нестеров) ч.26
По Волне Моей Памяти (Олег Нестеров) ч.27
По Волне Моей Памяти (Олег Нестеров) ч.28
По Волне Моей Памяти (Олег Нестеров) ч.29
По Волне Моей Памяти (Олег Нестеров) ч.30
По Волне Моей Памяти (Олег Нестеров) ч.31
По Волне Моей Памяти (Олег Нестеров) ч.32
По Волне Моей Памяти (Олег Нестеров) ч.33
По Волне Моей Памяти (Олег Нестеров) ч.34
По Волне Моей Памяти (Олег Нестеров) ч.35
По Волне Моей Памяти (Олег Нестеров) ч.37
По Волне Моей Памяти (Олег Нестеров) ч.38
По Волне Моей Памяти (Олег Нестеров) ч.39
[teatrix.ru].t18977.torrent 
Торрент: Зарегистрирован [ 2016-03-18 12:26 ] · 6B431104D50BBBA92C1EAF569BF6A57DDF8992E8

Скачать .torrent

Скачать

23 KB

Статус: проверено
Скачан: 0 раз
Размер: 4.32 GB
terms.php



Быстрый ответ

Имя:

      
Для отправки сообщений необходимо включить JavaScript
Показать сообщения:    

Текущее время: 02-Дек 23:11

Часовой пояс: UTC + 3


Вы можете начинать темы
Вы можете отвечать на сообщения
Вы не можете редактировать свои сообщения
Вы не можете удалять свои сообщения
Вы не можете голосовать в опросах
Вы не можете прикреплять файлы к сообщениям
Вы можете скачивать файлы