(Classical/Piano) [24/96] L. Janáček (Janacek) - On an Overgrown Path (Tema con variazioni) - Ivan Klansky (piano) - 1981, FLAC (image+.cue)


Статистика раздачи [Обновить пиров]
Размер:  909 MB   |    Зарегистрирован:  8 месяцев 21 день   |    Скачан:  0 раз

Полного источника не было: Никогда

Личеров:  3  [  0 KB/s  ]   Подробная статистика пиров
 
   
 
 
 

[Цитировать]

L. Janáček
On an Overgrown Path (Tema con variazioni) - Ivan Klansky (piano)

Жанр: Classical/Piano
Носитель: LP
Год выпуска: 1981
Лейбл: Supraphon – 1111 2976
Страна-производитель: Czechoslovakia
Аудио кодек: FLAC
Тип рипа: image+.cue
Формат записи: 24/192
Формат раздачи: 24/96
Продолжительность: 00:52:31
Тэги в .cue: прописаны
Источник оцифровки: автором раздачи
Код класса состояния винила: VG
Устройство воспроизведения: Электроника ЭП 017С
Головка звукоснимателя: ГЗМ – 028 (Корвет)
Предварительный усилитель: AMX - 100 (LTO®)
АЦП: Juli@
Программа-оцифровщик: iZotope RX 3
Обработка: удаление артефактов, частичная реставрация

Трэклист:


Leoš Janáček
On an Overgrown Path. Cycle of Compositions for Piano, Set 1

A1 Our Evenings (Moderato)
A2 A Leaf Gone with the Wind (Andante)
A3 Come With Us! (Andante)
A4 The Holy Virgin of Frydek (Grave
A5 Twittering Swallows (Con moto)
A6 Unfinished Talk (Andante)
A7 Good Night (Andante)
A8 Torturing Anxiety (Andante)
A9 In Tears (Larghetto)"
A10 The Bird of III Omen Lingers on (Andante)"
B1 Tema Con Variazioni for Piano"
On an Overgrown Path. Cycle of Compositions for Piano, Set 2
B2 Andante"
B3 Allegretto"
B4 Piu mosso"
B5 Allegro"
B6 Vivo"
Ivan Klansky (piano)

Конверт, наклейки:


Уровень записи, спектр, АЧХ:

.cue txt:

REM GENRE Classical/Piano
REM DATE 1981
REM COMENT Vinyl, LP, Compilation, Supraphon – 1111 2976, Czechoslovakia
TITLE On an Overgrown Path (Tema con variazioni)
PERFORMER Ivan Klansky (piano)
FILE "01. Ivan Klansky - Side 1.flac" WAVE
TRACK 01 AUDIO
TITLE "A1 Our Evenings (Moderato)"
INDEX 01 00:00:00
TRACK 02 AUDIO
TITLE "A2 A Leaf Gone with the Wind (Andante)"
INDEX 01 03:27:15
TRACK 03 AUDIO
TITLE "A3 Come With Us! (Andante)"
INDEX 01 06:59:73
TRACK 04 AUDIO
TITLE "A4 The Holy Virgin of Frydek (Grave)"
INDEX 01 08:06:43
TRACK 05 AUDIO
TITLE "A5 Twittering Swallows (Con moto)"
INDEX 01 11:36:01
TRACK 06 AUDIO
TITLE "A6 Unfinished Talk (Andante)"
INDEX 01 13:37:19
TRACK 07 AUDIO
TITLE "A7 Good Night (Andante)"
INDEX 01 15:43:30
TRACK 08 AUDIO
TITLE "A8 Torturing Anxiety (Andante)"
INDEX 01 18:37:20
TRACK 09 AUDIO
TITLE "A9 In Tears (Larghetto)"
INDEX 01 21:01:42
TRACK 10 AUDIO
TITLE "A10 The Bird of III Omen Lingers on (Andante)"
INDEX 01 23:47:16
FILE "02. Ivan Klansky - Side 2.flac" WAVE
TRACK 11 AUDIO
TITLE "B1 Tema Con Variazioni for Piano"
INDEX 01 00:00:00
TRACK 12 AUDIO
TITLE "B2 Andante"
INDEX 01 08:52:12
TRACK 13 AUDIO
TITLE "B3 Allegretto"
INDEX 01 12:22:00
TRACK 14 AUDIO
TITLE "B4 Piu mosso"
INDEX 01 15:38:43
TRACK 15 AUDIO
TITLE "B5 Allegro"
INDEX 01 18:01:60
TRACK 16 AUDIO
TITLE "B6 Vivo"
INDEX 01 22:17:15
[teatrix.ru].t18978.torrent 
Торрент: Зарегистрирован [ 2016-03-18 12:17 ] · 6EB4737E973DCA2535A48EE1E2DC7559EA727429

Скачать .torrent

Скачать

19 KB

Статус: проверено
Скачан: 0 раз
Размер: 909 MB
terms.php



Быстрый ответ

Имя:

      
Для отправки сообщений необходимо включить JavaScript
Показать сообщения:    

Текущее время: 08-Дек 14:58

Часовой пояс: UTC + 3


Вы можете начинать темы
Вы можете отвечать на сообщения
Вы не можете редактировать свои сообщения
Вы не можете удалять свои сообщения
Вы не можете голосовать в опросах
Вы не можете прикреплять файлы к сообщениям
Вы можете скачивать файлы