(Classical) C.P.E., J.C., J.S. Bach - Keyboard Concertos - Анастасия Инюшина (Injushina), Hamburger Camerata, Ralf Gothoni - 2013, FLAC (image+.cue) lossless


Статистика раздачи [Обновить пиров]
Размер:  260 MB   |    Зарегистрирован:  8 месяцев 24 дня   |    Скачан:  0 раз

Полного источника не было: Никогда

Личеров:  6  [  0 KB/s  ]   Подробная статистика пиров
 
   
 
 
 

[Цитировать]

C.P.E., J.C., J.S. Bach - Keyboard Concertos - Анастасия Инюшина (Injushina), Hamburger Camerata, Ralf Gothóni
Жанр: Classical
Страна-производитель диска: Finland
Год издания диска: 2013
Издатель (лейбл): Ondine
Номер по каталогу: ODE 1224-2
Дата записи: 2012
Аудиокодек: FLAC
Тип рипа: image+.cue
Битрейт аудио: lossless
Продолжительность: 69:25
Источник: собственный рип
Наличие сканов в содержимом раздачи: да
Треклист:
Carl Philipp Emanuel Bach (1714-1788)
[1]-[3] Concerto in D major, Wq 43/2
Johann Christian Bach (1735-1782)
[4]-[5] Concerto in D major, Op. 7/3
[6]-[8] Concerto in E flat major, Op. 7/5
Johann Sebastian Bach (1685-1750)
[9]-[11] Concerto No. II in E major, BWV 1053
Исполнители:
Anastasia Injushina piano
Hamburger Camerata
Ralf Gothóni
conductor

Лог создания рипа

Exact Audio Copy V1.0 beta 3 from 29. August 2011
EAC extraction logfile from 11. June 2014, 1:01
Anastasia Injushina, Hamburger Camerata, Ralf Gothoni / C.P.E., J.C., J.S. Bach - Keyboard Concertos
Used drive : HL-DT-STDVDRAM GSA-4083N Adapter: 1 ID: 0
Read mode : Secure
Utilize accurate stream : Yes
Defeat audio cache : Yes
Make use of C2 pointers : No
Read offset correction : 667
Overread into Lead-In and Lead-Out : No
Fill up missing offset samples with silence : Yes
Delete leading and trailing silent blocks : No
Null samples used in CRC calculations : Yes
Used interface : Native Win32 interface for Win NT & 2000
Used output format : User Defined Encoder
Selected bitrate : 896 kBit/s
Quality : High
Add ID3 tag : No
Command line compressor : C:\Program Files\Exact Audio Copy\Flac\flac.exe
Additional command line options : -V -8 %source%
TOC of the extracted CD
Track | Start | Length | Start sector | End sector
---------------------------------------------------------
1 | 0:00.00 | 7:10.08 | 0 | 32257
2 | 7:10.08 | 6:45.71 | 32258 | 62703
3 | 13:56.04 | 8:27.71 | 62704 | 100799
4 | 22:24.00 | 5:41.00 | 100800 | 126374
5 | 28:05.00 | 5:17.00 | 126375 | 150149
6 | 33:22.00 | 7:02.20 | 150150 | 181819
7 | 40:24.20 | 6:25.00 | 181820 | 210694
8 | 46:49.20 | 3:20.55 | 210695 | 225749
9 | 50:10.00 | 7:59.43 | 225750 | 261717
10 | 58:09.43 | 5:08.54 | 261718 | 284871
11 | 63:18.22 | 6:04.53 | 284872 | 312224
Range status and errors
Selected range
Filename J:\New Music\C.P.E., J.C., J.S. Bach - Keyboard Concertos\C.P.E., J.C., J.S. Bach - Keyboard Concertos.wav
Peak level 98.8 %
Extraction speed 3.4 X
Range quality 99.9 %
Test CRC 37C69577
Copy CRC 37C69577
Copy OK
No errors occurred
AccurateRip summary
Track 1 accurately ripped (confidence 1) [FDF0372D] (AR v2)
Track 2 accurately ripped (confidence 1) [907B7010] (AR v2)
Track 3 accurately ripped (confidence 1) [8D6DC8F6] (AR v2)
Track 4 accurately ripped (confidence 1) [ACCB6529] (AR v2)
Track 5 accurately ripped (confidence 1) [E7C716A4] (AR v2)
Track 6 accurately ripped (confidence 1) [4441C38D] (AR v2)
Track 7 accurately ripped (confidence 1) [E2F4B887] (AR v2)
Track 8 accurately ripped (confidence 1) [842E257A] (AR v2)
Track 9 accurately ripped (confidence 1) [D2C9AC7B] (AR v2)
Track 10 accurately ripped (confidence 1) [FD5FC963] (AR v2)
Track 11 accurately ripped (confidence 1) [114E5B67] (AR v2)
All tracks accurately ripped
End of status report
==== Log checksum 02047C45D00D3775C44586420770E290927077EC1DCFF8B6980C31F213C4C857 ====
[teatrix.ru].t18979.torrent 
Торрент: Зарегистрирован [ 2016-03-18 12:26 ] · F878EF3427C89798CC6A357027C0966B2591C1D3

Скачать .torrent

Скачать

22 KB

Статус: проверено
Скачан: 0 раз
Размер: 260 MB
terms.php



Быстрый ответ

Имя:

      
Для отправки сообщений необходимо включить JavaScript
Показать сообщения:    

Текущее время: 11-Дек 13:01

Часовой пояс: UTC + 3


Вы можете начинать темы
Вы можете отвечать на сообщения
Вы не можете редактировать свои сообщения
Вы не можете удалять свои сообщения
Вы не можете голосовать в опросах
Вы не можете прикреплять файлы к сообщениям
Вы можете скачивать файлы