(Classical / Romanticism) Frederic Chopin (1810-1849) Complete Piano Concertos - Christian Zacharias, Orchestre de Chambre de Lausanne - 2005, FLAC (image+.cue) lossless


Статистика раздачи [Обновить пиров]
Размер:  247 MB   |    Зарегистрирован:  8 месяцев 19 дней   |    Скачан:  0 раз

Полного источника не было: Никогда

Личеров:  6  [  0 KB/s  ]   Подробная статистика пиров
 
   
 
 
 

[Цитировать]

Frederic CHOPIN (1810-1849)
Complete Piano Concertos
Жанр: Classical / Romanticism
Страна-производитель диска: Germany
Год издания диска: 2005
Издатель (лейбл): MDG
Номер по каталогу: MDG 340 1267-2
Дата записи: 2003,2004
Аудиокодек: FLAC
Тип рипа: image+.cue
Битрейт аудио: lossless
Продолжительность: 72'05
Источник: собственный рип
Наличие сканов в содержимом раздачи: да
Треклист:
Concerto No.1 op.11 e-Moll
1. Allegro maestoso
2. Romanze. Larghetto
3. Rondo. Vivace
Concerto No.2 op.21 f-Moll
4. Maestosoa
5. Larghetto
6. Allegro vivace

Исполнители:
Christian Zacharias, piano
Orchestre de Chambre de Lausanne

Recording: March, 21-22, 2003 (Concerto No.2), October, 10-11, 2004 (Concerto No.1), Metropol Lausanne

EAC log

Exact Audio Copy V1.0 beta 3 from 29. August 2011
EAC extraction logfile from 24. July 2014, 0:10
OCL/Zacharias / Frederic Chopin: Klavierkonzerte
Used drive : Optiarc DVD RW AD-7173A Adapter: 3 ID: 0
Read mode : Secure
Utilize accurate stream : Yes
Defeat audio cache : Yes
Make use of C2 pointers : No
Read offset correction : 48
Overread into Lead-In and Lead-Out : No
Fill up missing offset samples with silence : Yes
Delete leading and trailing silent blocks : No
Null samples used in CRC calculations : Yes
Used interface : Native Win32 interface for Win NT & 2000
Used output format : Internal WAV Routines
Sample format : 44.100 Hz; 16 Bit; Stereo
TOC of the extracted CD
Track | Start | Length | Start sector | End sector
---------------------------------------------------------
1 | 0:00.00 | 20:28.42 | 0 | 92141
2 | 20:28.42 | 9:49.26 | 92142 | 136342
3 | 30:17.68 | 10:40.46 | 136343 | 184388
4 | 40:58.39 | 13:47.03 | 184389 | 246416
5 | 54:45.42 | 8:29.65 | 246417 | 284656
6 | 63:15.32 | 8:49.74 | 284657 | 324405
Range status and errors
Selected range
Filename C:\Scanned\1\OCL,Zacharias - Frederic Chopin- Klavierkonzerte.wav
Peak level 91.0 %
Extraction speed 5.6 X
Range quality 100.0 %
Copy CRC F2718264
Copy OK
No errors occurred
AccurateRip summary
Track 1 accurately ripped (confidence 5) [BF5D6A0D] (AR v2)
Track 2 accurately ripped (confidence 5) [0293EFCF] (AR v2)
Track 3 accurately ripped (confidence 5) [9C9B47C6] (AR v2)
Track 4 accurately ripped (confidence 5) [859C820B] (AR v2)
Track 5 accurately ripped (confidence 5) [CD85557A] (AR v2)
Track 6 accurately ripped (confidence 5) [C968FFE6] (AR v2)
All tracks accurately ripped
End of status report
==== Log checksum 4335EC7A475027433B549C712F47C6BAA67D5BF5D99DA33114409C599C39E22A ====
[teatrix.ru].t18980.torrent 
Торрент: Зарегистрирован [ 2016-03-18 12:25 ] · 39BB24D175D0CF14CAB30842F9224F7B4846CA25

Скачать .torrent

Скачать

20 KB

Статус: проверено
Скачан: 0 раз
Размер: 247 MB
terms.php



Быстрый ответ

Имя:

      
Для отправки сообщений необходимо включить JavaScript
Показать сообщения:    

Текущее время: 06-Дек 19:01

Часовой пояс: UTC + 3


Вы можете начинать темы
Вы можете отвечать на сообщения
Вы не можете редактировать свои сообщения
Вы не можете удалять свои сообщения
Вы не можете голосовать в опросах
Вы не можете прикреплять файлы к сообщениям
Вы можете скачивать файлы