(Classical) Tristan's Harp: Arthurian Medieval Music - Capilla Antigua de Chinchilla, Jose Ferrero - 2012, FLAC (image+.cue) lossless


 

[Цитировать]

Tristan's Harp: Arthurian Medieval Music - Capilla Antigua de Chinchilla, José Ferrero
Жанр: Classical
Год издания диска: 2012
Издатель (лейбл): Naxos
Номер по каталогу: 8.572784
Дата записи: 2011
Аудиокодек: FLAC
Тип рипа: image+.cue
Битрейт аудио: lossless
Продолжительность: 61:16
Источник: собственный рип
Наличие сканов в содержимом раздачи: да
Треклист:
[1] Alfonso X el Sabio (1221-1284): O que a Santa Maria – Cantiga 35
[2] Anonymous Italian (14th century): Lamento di Tristano – Contrafactum (Text: Tristant muste sonder danc by Heinrich von Veldeke, 1150-c.1190)
[3] Anonymous English (13th century): “Dance of the forest of no return” – Stantipes I (Instrumental)
[4] Thibaut de Champagne (1201-1253): Deus est ensi comme li pellicanz
[5] Anonymous English (12th century): Redit aetas aurea
[6] Richard I, Coeur-de-Lion (1157-1199): Ja nuls homs pres
[7] Anonymous French (c.1190): Pange melos lacrimosum
[8] Anonymous French (13th century): Quarte Estampie Royale (Instrumental)
[9] Le Châtelain de Coucy (c.1165-1203): La douce voiz du louseignol sauvage
[10] Anonymous English (13th century): “Dance of the forest of no return” – Stantipes II (Instrumental)
[11] Bernart de Ventadorn (c.1130-1200): Can vei la lauzeta
[12] Alfonso X el Sabio: Des quando Deus sa madre – Cantiga 419 (Instrumental)
[13] Anonymous English (13th century): “Dance of the forest of no return” – Stantipes III (Instrumental)
[14] Alfonso X el Sabio: Dereit’ é de ss’ end’ achar – Cantiga 108
Исполнители:
Capilla Antigua de Chinchilla
José Ferrero
director

Лог создания рипа

Exact Audio Copy V1.0 beta 3 from 29. August 2011
EAC extraction logfile from 14. June 2014, 16:43
Capilla Antigua de Chinchilla, José Ferrero / Tristan's Harp - Arthurian medieval music
Used drive : HL-DT-STDVDRAM GSA-4083N Adapter: 1 ID: 0
Read mode : Secure
Utilize accurate stream : Yes
Defeat audio cache : Yes
Make use of C2 pointers : No
Read offset correction : 667
Overread into Lead-In and Lead-Out : No
Fill up missing offset samples with silence : Yes
Delete leading and trailing silent blocks : No
Null samples used in CRC calculations : Yes
Used interface : Native Win32 interface for Win NT & 2000
Used output format : User Defined Encoder
Selected bitrate : 896 kBit/s
Quality : High
Add ID3 tag : No
Command line compressor : C:\Program Files\Exact Audio Copy\Flac\flac.exe
Additional command line options : -V -8 %source%
TOC of the extracted CD
Track | Start | Length | Start sector | End sector
---------------------------------------------------------
1 | 0:00.00 | 4:04.14 | 0 | 18313
2 | 4:04.14 | 4:48.53 | 18314 | 39966
3 | 8:52.67 | 2:27.62 | 39967 | 51053
4 | 11:20.54 | 5:27.61 | 51054 | 75639
5 | 16:48.40 | 3:51.34 | 75640 | 92998
6 | 20:39.74 | 6:03.11 | 92999 | 120234
7 | 26:43.10 | 3:20.60 | 120235 | 135294
8 | 30:03.70 | 4:17.12 | 135295 | 154581
9 | 34:21.07 | 6:22.38 | 154582 | 183269
10 | 40:43.45 | 1:25.16 | 183270 | 189660
11 | 42:08.61 | 7:30.73 | 189661 | 223483
12 | 49:39.59 | 2:41.02 | 223484 | 235560
13 | 52:20.61 | 1:58.69 | 235561 | 244479
14 | 54:19.55 | 6:54.20 | 244480 | 275549
Range status and errors
Selected range
Filename J:\New Music\Naxos_8.572784 - Tristan's Harp\Tristan's Harp.wav
Peak level 100.0 %
Extraction speed 3.5 X
Range quality 100.0 %
Test CRC CE6A2E26
Copy CRC CE6A2E26
Copy OK
No errors occurred
AccurateRip summary
Track 1 not present in database
Track 2 not present in database
Track 3 not present in database
Track 4 not present in database
Track 5 not present in database
Track 6 not present in database
Track 7 not present in database
Track 8 not present in database
Track 9 not present in database
Track 10 not present in database
Track 11 not present in database
Track 12 not present in database
Track 13 not present in database
Track 14 not present in database
None of the tracks are present in the AccurateRip database
End of status report
==== Log checksum 75ECAB0C0849D4231062535BC925E89CC6291908B02D8A3F98051748FEAA1881 ====



Показать сообщения:    

Текущее время: 06-Дек 22:53

Часовой пояс: UTC + 3


Вы не можете начинать темы
Вы не можете отвечать на сообщения
Вы не можете редактировать свои сообщения
Вы не можете удалять свои сообщения
Вы не можете голосовать в опросах
Вы не можете прикреплять файлы к сообщениям
Вы не можете скачивать файлы