(Baroque Oratorio) Handel - Samson / Гендель - Самсон (Rolfe Johnson, Alexander, Pregardien, Blasi, Kowalski - Concentus musicus Wien, Harnoncourt) - 2009, APE (image+.cue) lossless


Статистика раздачи [Обновить пиров]
Размер:  548 MB   |    Зарегистрирован:  8 месяцев 20 дней   |    Скачан:  0 раз

Полного источника не было: Никогда

Личеров:  6  [  0 KB/s  ]   Подробная статистика пиров
 
   
 
 
 

[Цитировать]

Georg Frideric Handel - Samson
Жанр: Baroque Oratorio
Страна-производитель диска: EU
Год издания диска: 2009
Издатель (лейбл): Teldec Classics
Номер по каталогу: 2564 69260-2
Дата записи: 1993
Аудиокодек: APE
Тип рипа: image+.cue
Битрейт аудио: lossless
Продолжительность: 75'40 + 72'03
Источник: собственный рип
Наличие сканов в содержимом раздачи: да
Треклист:

CD1

1. Symphony
2. Menuet
3. Act I, Scene 1: Awake the trumpet's lofty sound!
4. Act I, Scene 1: Ye men of Gaza, hither bring
5. Act I, Scene 1: Awake the trumpet's Lofty sound
6. Act I, Scene 1: Torments, alas! are not confined
7. Act I, Scene 2: O mirror of our fickle state
8. Act I, Scene 2: Total eclipse! no sun, no moon, all dark
9. Act I, Scene 2: Since light so necessary is to life
10. Act I, Scene 2: O first created beam!
11. Act I, Scene 3: Oh miserable change! is this the man
12. Act I, Scene 3: The good we wish for, often prove our banes
13. Act I, Scene 3: Thy glorious deeds inspir'd my tongue
14. Act I, Scene 3: My genial spirits droop, my hopes are flat
15. Act I, Scene 3: Then long Eternity shall greet your bliss
16. Act I, Scene 3: Then round about the starry throne
17. Act II, Scene 1: Trust yet in God! Thy father's timely care
18. Act II, Scene 1: Return, oh God of hosts!
19. Act II, Scene 1: To dust his glory they would tread
20. Act II, Scene 2: With plaintive notes and am'rous moan
21. Act II, Scene 2: Your charms to ruin led the way
22. Act II, Scene 2: My (Her) faith and truth, oh Samson, prove
23. Act II, Scene 2: Her faith and truth, oh Samson, prove
24. Act II, Scene 2: To fleeting pleasures make your court
25. Act II, Scene 2: Her faith and truth, oh Samson, prove

CD2

1. Act II, Scene 2: N'er think of that!
2. Act II, Scene 2: Traitor to love! I'll sue no more
3. Act II, Scene 3: To man God's universal law
4. Act II, Scene 4: Honour and arms scorn such a foe
5. Act II, Scene 4: Go, baffled coward, go/Presume not on thy God
6. Act II, Scene 4: Hear,Jacob's God, Jehovah, hear!
7. Act II, Scene 4: To song and dance we give the day
8. Act II, Scene 4: To song and dace we give the day
9. Act II, Scene 4: Fix in his everlasting seat
10. Act III, Scene 1: More trouble is behind: for Harapha
11. Act III, Scene 1: Presuming slave, to move thier wrath
12. Act III, Scene 1: With thunder arm'd, geat God, arise!
13. Act III, Scene 1: Jehova's Glory known!
14. Act III, Scene 1: Thus when the sun from's wat'ry bed
15. Act III, Scene 1: With might endued above the suns of men
16. Act III, Scene 1: The Holy One of Israel be thy guide
17. Act III, Scene 1: To fame immortal go
18. Act III, Scene 2: Great Dagon has subdued our foe
19. Act III, Scene 2: Great Dagon has subdued our foe
20. Act III, Scene 2: How willing my paternal love
21. Act III, Scene 2: A Sym of horror and confusion
22. Act III, Scene 2: Hear us, our God, oh hear our cry
23. Act III, Scene 2: Ye sons of Israel, now lament
24. Act III, Scene 2: Weep, Israel, weep a louder strain
25. Act III, Scene 2: A Dead March
26. Act III, Scene 2: Glorious hero, may thy grave
27. Act III, Scene 2: Let the bright seraphim in burning row
28. Act III, Scene 2: Let Their celestial concerts all unite
Исполнители:
Georg Frideric Handel - Samson
Libretto by Newburgh Hamilton based on John Milton's Samson Agonistes
Samson.....Anthony Rolfe Johnson
Dalila …............. Roberta Alexander
Micah..................... Jochen Kowalski
Manoa........................ Anton Scharinger
Harapha............................. Alastair Miles
Israelitish Woman.....................Maria Venuti
Philistine Woman............. Angela Maria Blasi
Philistine Messenger …. Christoph Prégardien
Arnold Schoenberg Chor
Erwin Ortner, Chorus Master
Concentus musicus Wien
Nikolaus Harnoncourt conductor

Лог создания рипа

CD1

Exact Audio Copy V1.0 beta 3 from 29. August 2011
EAC extraction logfile from 26. July 2014, 20:28
Handel / Samson, Harnoncourt CD1
Used drive : HL-DT-STDVDRAM GH22NS50 Adapter: 0 ID: 2
Read mode : Secure
Utilize accurate stream : Yes
Defeat audio cache : Yes
Make use of C2 pointers : No
Read offset correction : 667
Overread into Lead-In and Lead-Out : No
Fill up missing offset samples with silence : Yes
Delete leading and trailing silent blocks : No
Null samples used in CRC calculations : Yes
Used interface : Native Win32 interface for Win NT & 2000
Used output format : Monkey's Audio Lossless Encoder
Selected bitrate : High Lossless Compression
Quality : High
Add ID3 tag : No
Command line compressor : C:\Program Files (x86)\Exact Audio Copy\MAC\MAC.exe
TOC of the extracted CD
Track | Start | Length | Start sector | End sector
---------------------------------------------------------
1 | 0:00.00 | 5:28.05 | 0 | 24604
2 | 5:28.05 | 2:58.05 | 24605 | 37959
3 | 8:26.10 | 2:03.67 | 37960 | 47251
4 | 10:30.02 | 3:54.48 | 47252 | 64849
5 | 14:24.50 | 1:13.07 | 64850 | 70331
6 | 15:37.57 | 5:57.38 | 70332 | 97144
7 | 21:35.20 | 4:01.67 | 97145 | 115286
8 | 25:37.12 | 3:27.73 | 115287 | 130884
9 | 29:05.10 | 1:19.02 | 130885 | 136811
10 | 30:24.12 | 4:54.30 | 136812 | 158891
11 | 35:18.42 | 0:54.68 | 158892 | 163009
12 | 36:13.35 | 1:09.40 | 163010 | 168224
13 | 37:23.00 | 4:17.57 | 168225 | 187556
14 | 41:40.57 | 1:19.35 | 187557 | 193516
15 | 43:00.17 | 0:54.48 | 193517 | 197614
16 | 43:54.65 | 2:30.70 | 197615 | 208934
17 | 46:25.60 | 0:57.05 | 208935 | 213214
18 | 47:22.65 | 3:49.30 | 213215 | 230419
19 | 51:12.20 | 5:25.10 | 230420 | 254804
20 | 56:37.30 | 6:20.30 | 254805 | 283334
21 | 62:57.60 | 3:49.40 | 283335 | 300549
22 | 66:47.25 | 4:44.42 | 300550 | 321891
23 | 71:31.67 | 1:11.58 | 321892 | 327274
24 | 72:43.50 | 1:37.25 | 327275 | 334574
25 | 74:21.00 | 1:18.72 | 334575 | 340496
Range status and errors
Selected range
Filename D:\EAC\Handel - Samson, Harnoncourt CD1.wav
Peak level 80.9 %
Extraction speed 2.1 X
Range quality 100.0 %
Test CRC F42979D9
Copy CRC F42979D9
Copy OK
No errors occurred
AccurateRip summary
Track 1 accurately ripped (confidence 4) [BE437BDE] (AR v2)
Track 2 accurately ripped (confidence 4) [B18198CA] (AR v2)
Track 3 accurately ripped (confidence 4) [E918E1A0] (AR v2)
Track 4 accurately ripped (confidence 4) [1B74F955] (AR v2)
Track 5 accurately ripped (confidence 4) [B4C0714A] (AR v2)
Track 6 accurately ripped (confidence 4) [88206CC3] (AR v2)
Track 7 accurately ripped (confidence 4) [0D7947F9] (AR v2)
Track 8 accurately ripped (confidence 4) [051F978E] (AR v2)
Track 9 accurately ripped (confidence 4) [C0F674AA] (AR v2)
Track 10 accurately ripped (confidence 4) [FECBB9C7] (AR v2)
Track 11 accurately ripped (confidence 4) [A85B5A25] (AR v2)
Track 12 accurately ripped (confidence 4) [2B69E7DA] (AR v2)
Track 13 accurately ripped (confidence 4) [739BDAD7] (AR v2)
Track 14 accurately ripped (confidence 4) [C7F9D0B9] (AR v2)
Track 15 accurately ripped (confidence 4) [63F5606A] (AR v2)
Track 16 accurately ripped (confidence 4) [76441947] (AR v2)
Track 17 accurately ripped (confidence 4) [CB95AB2E] (AR v2)
Track 18 accurately ripped (confidence 4) [E7AED3AD] (AR v2)
Track 19 accurately ripped (confidence 4) [99E7E9DC] (AR v2)
Track 20 accurately ripped (confidence 4) [6A69AF6F] (AR v2)
Track 21 accurately ripped (confidence 4) [24391BD4] (AR v2)
Track 22 accurately ripped (confidence 4) [65114103] (AR v2)
Track 23 accurately ripped (confidence 4) [7E962DB0] (AR v2)
Track 24 accurately ripped (confidence 4) [E7509892] (AR v2)
Track 25 accurately ripped (confidence 4) [44CC15D9] (AR v2)
All tracks accurately ripped
End of status report
---- CUETools DB Plugin V2.1.3
[CTDB TOCID: 1XN.Sf2hrdkO.smwc54vkdtsK0A-] found, Submit result: 1XN.Sf2hrdkO.smwc54vkdtsK0A- has been confirmed
[628a2b77] (17/19) Accurately ripped
[e1289beb] (01/19) No match
[9ee1c136] (01/19) No match
==== Log checksum 21A7CBF0DBA6F9D817AD470040C598E6E0345FFEAB28C6418140C22DF0D557A8 ====

CD2

Exact Audio Copy V1.0 beta 3 from 29. August 2011
EAC extraction logfile from 26. July 2014, 20:14
Handel / Samson, Harnoncourt CD2
Used drive : TSSTcorpCDDVDW SE-208AB Adapter: 1 ID: 0
Read mode : Secure
Utilize accurate stream : Yes
Defeat audio cache : Yes
Make use of C2 pointers : No
Read offset correction : 6
Overread into Lead-In and Lead-Out : No
Fill up missing offset samples with silence : Yes
Delete leading and trailing silent blocks : No
Null samples used in CRC calculations : Yes
Used interface : Native Win32 interface for Win NT & 2000
Used output format : Monkey's Audio Lossless Encoder
Selected bitrate : High Lossless Compression
Quality : High
Add ID3 tag : No
Command line compressor : C:\Program Files (x86)\Exact Audio Copy\MAC\MAC.exe
TOC of the extracted CD
Track | Start | Length | Start sector | End sector
---------------------------------------------------------
1 | 0:00.00 | 1:16.67 | 0 | 5766
2 | 1:16.67 | 2:18.20 | 5767 | 16136
3 | 3:35.12 | 4:19.28 | 16137 | 35589
4 | 7:54.40 | 5:18.70 | 35590 | 59509
5 | 13:13.35 | 3:05.42 | 59510 | 73426
6 | 16:19.02 | 3:15.00 | 73427 | 88051
7 | 19:34.02 | 1:23.70 | 88052 | 94346
8 | 20:57.72 | 2:06.18 | 94347 | 103814
9 | 23:04.15 | 2:54.00 | 103815 | 116864
10 | 25:58.15 | 1:27.00 | 116865 | 123389
11 | 27:25.15 | 2:56.70 | 123390 | 136659
12 | 30:22.10 | 4:23.72 | 136660 | 156456
13 | 34:46.07 | 0:30.38 | 156457 | 158744
14 | 35:16.45 | 4:03.47 | 158745 | 177016
15 | 39:20.17 | 0:32.50 | 177017 | 179466
16 | 39:52.67 | 1:26.60 | 179467 | 185976
17 | 41:19.52 | 1:20.28 | 185977 | 192004
18 | 42:40.05 | 1:55.32 | 192005 | 200661
19 | 44:35.37 | 2:23.73 | 200662 | 211459
20 | 46:59.35 | 2:49.05 | 211460 | 224139
21 | 49:48.40 | 0:23.67 | 224140 | 225931
22 | 50:12.32 | 3:08.65 | 225932 | 240096
23 | 53:21.22 | 2:03.48 | 240097 | 249369
24 | 55:24.70 | 1:11.02 | 249370 | 254696
25 | 56:35.72 | 3:42.05 | 254697 | 271351
26 | 60:18.02 | 5:13.08 | 271352 | 294834
27 | 65:31.10 | 3:13.45 | 294835 | 309354
28 | 68:44.55 | 3:18.72 | 309355 | 324276
Range status and errors
Selected range
Filename D:\EAC\Handel - Samson, Harnoncourt CD2.wav
Peak level 87.6 %
Extraction speed 3.4 X
Range quality 100.0 %
Test CRC 3D92C8EF
Copy CRC 3D92C8EF
Copy OK
No errors occurred
AccurateRip summary
Track 1 accurately ripped (confidence 4) [C17B5802] (AR v2)
Track 2 accurately ripped (confidence 4) [0E073B7D] (AR v2)
Track 3 accurately ripped (confidence 4) [334274BE] (AR v2)
Track 4 accurately ripped (confidence 4) [87A106C7] (AR v2)
Track 5 accurately ripped (confidence 4) [D78F7A7B] (AR v2)
Track 6 accurately ripped (confidence 4) [BB802585] (AR v2)
Track 7 accurately ripped (confidence 4) [EB8C8AF2] (AR v2)
Track 8 accurately ripped (confidence 4) [ED80688B] (AR v2)
Track 9 accurately ripped (confidence 4) [88A6D9CE] (AR v2)
Track 10 accurately ripped (confidence 4) [33979137] (AR v2)
Track 11 accurately ripped (confidence 4) [5E92F25A] (AR v2)
Track 12 accurately ripped (confidence 4) [6F947E95] (AR v2)
Track 13 accurately ripped (confidence 4) [4047199F] (AR v2)
Track 14 accurately ripped (confidence 4) [B84E1E9C] (AR v2)
Track 15 accurately ripped (confidence 4) [91620449] (AR v2)
Track 16 accurately ripped (confidence 4) [64EF06FE] (AR v2)
Track 17 accurately ripped (confidence 4) [51590C76] (AR v2)
Track 18 accurately ripped (confidence 4) [DFBBA796] (AR v2)
Track 19 accurately ripped (confidence 4) [A27D8789] (AR v2)
Track 20 accurately ripped (confidence 4) [E16021AD] (AR v2)
Track 21 accurately ripped (confidence 4) [D889D8EA] (AR v2)
Track 22 accurately ripped (confidence 4) [E0DAC85A] (AR v2)
Track 23 accurately ripped (confidence 4) [AF48A7DA] (AR v2)
Track 24 accurately ripped (confidence 4) [304214B2] (AR v2)
Track 25 accurately ripped (confidence 4) [AB636864] (AR v2)
Track 26 accurately ripped (confidence 4) [6607D581] (AR v2)
Track 27 accurately ripped (confidence 4) [C155BEF1] (AR v2)
Track 28 accurately ripped (confidence 4) [87004CF4] (AR v2)
All tracks accurately ripped
End of status report
---- CUETools DB Plugin V2.1.3
[CTDB TOCID: Ey7F.z.C5_43MDajFE3PYptyHwI-] found, Submit result: Ey7F.z.C5_43MDajFE3PYptyHwI- has been confirmed
[52637134] (17/18) Accurately ripped
[3e3308fa] (01/18) No match
==== Log checksum F5D40EF57E9D0392977F37BDA7CADA921C45E361E46933CE98063E84320DE407 ====

Содержание индексной карты (.CUE)

CD1

REM GENRE Opera
REM DATE 1992
REM DISCID 8B11BB19
REM COMMENT "ExactAudioCopy v1.0b3"
CATALOG 0825646926022
PERFORMER "Handel"
TITLE "Samson, Harnoncourt CD1"
FILE "Handel - Samson, Harnoncourt CD1.ape" WAVE
TRACK 01 AUDIO
TITLE "Symphony "
PERFORMER "Handel"
ISRC DEA809317481
INDEX 01 00:00:00
TRACK 02 AUDIO
TITLE "Menuet"
PERFORMER "Handel"
ISRC DEA809317482
INDEX 01 05:28:05
TRACK 03 AUDIO
TITLE "Act I, Scene I - Chorus of Philistines: Awake the trumpet's lofty sound"
PERFORMER "Handel"
ISRC DEA809317483
INDEX 00 08:26:09
INDEX 01 08:26:10
TRACK 04 AUDIO
TITLE "Act I, Scene I - Philistine Woman: Ye men of Gaza, hither bring"
PERFORMER "Handel"
ISRC DEA809317484
INDEX 00 10:30:01
INDEX 01 10:30:02
TRACK 05 AUDIO
TITLE "Act I, Scene I - Chorus of Philistines: Awake the trumpet's lofty sound"
PERFORMER "Handel"
ISRC DEA809317485
INDEX 00 14:24:49
INDEX 01 14:24:50
TRACK 06 AUDIO
TITLE "Act I, Scene I - Samson(Air): Torments, alas! are not confined"
PERFORMER "Handel"
ISRC DEA809317486
INDEX 00 15:37:56
INDEX 01 15:37:57
TRACK 07 AUDIO
TITLE "Act I, Scene II - Micah (Air): O mirror of our fickle state"
PERFORMER "Handel"
ISRC DEA809317487
INDEX 00 21:35:19
INDEX 01 21:35:20
TRACK 08 AUDIO
TITLE "Act I, Scene II - Samson (Air): Total eclipse! no sun, no moon, all dark"
PERFORMER "Handel"
ISRC DEA809317488
INDEX 00 25:37:11
INDEX 01 25:37:12
TRACK 09 AUDIO
TITLE "Act I, Scene II - Micah (Accompagnato): Since light so necessary is to life"
PERFORMER "Handel"
ISRC DEA809317489
INDEX 00 29:05:09
INDEX 01 29:05:10
TRACK 10 AUDIO
TITLE "Act I, Scene II - horus of Israelites: O first created beam!"
PERFORMER "Handel"
ISRC DEA809317490
INDEX 00 30:24:11
INDEX 01 30:24:12
TRACK 11 AUDIO
TITLE "Act I, Scene III - Manoa (Rec): Oh miserable change! is this the man"
PERFORMER "Handel"
ISRC DEA809317491
INDEX 00 35:18:41
INDEX 01 35:18:42
TRACK 12 AUDIO
TITLE "Act I, Scene III - Manoa (Acc): The good we wish for, often proves our banes"
PERFORMER "Handel"
ISRC DEA809317492
INDEX 00 36:13:34
INDEX 01 36:13:35
TRACK 13 AUDIO
TITLE "Act I, Scene III - Manoa (Air): Thy glorious deeds inspir'd my tongue"
PERFORMER "Handel"
ISRC DEA809317493
INDEX 00 37:22:74
INDEX 01 37:23:00
TRACK 14 AUDIO
TITLE "Act I, Scene III - Samson (Acc): My genial spirits droop, my hopes are flat"
PERFORMER "Handel"
ISRC DEA809317495
INDEX 00 41:40:56
INDEX 01 41:40:57
TRACK 15 AUDIO
TITLE "Act I, Scene III - Micah (Air): Then long Eternity shall greet your bliss"
PERFORMER "Handel"
ISRC DEA809317496
INDEX 00 43:00:16
INDEX 01 43:00:17
TRACK 16 AUDIO
TITLE "Act I, Scene III - Chorus of Israelites: Then round about the starry throne"
PERFORMER "Handel"
ISRC DEA809317497
INDEX 00 43:54:64
INDEX 01 43:54:65
TRACK 17 AUDIO
TITLE "Act II, Scene I - Manoa (Rec): Trust yet in God! Thy father's timely care"
PERFORMER "Handel"
INDEX 00 46:20:70
INDEX 01 46:25:60
TRACK 18 AUDIO
TITLE "Act II, Scene I - Micah (Air): Return, oh God of hosts!"
PERFORMER "Handel"
ISRC DEA809317499
INDEX 00 47:22:64
INDEX 01 47:22:65
TRACK 19 AUDIO
TITLE "Act II, Scene I - Chorus of Israelites:To dust his glory they would tread"
PERFORMER "Handel"
ISRC DEA809317500
INDEX 00 51:12:19
INDEX 01 51:12:20
TRACK 20 AUDIO
TITLE "Act II, Scene II - Attendant to Dalila: With plaintive notes and am'rous moan"
PERFORMER "Handel"
ISRC DEA809317501
INDEX 00 56:37:29
INDEX 01 56:37:30
TRACK 21 AUDIO
TITLE "Act II, Scene II - Samson (Air): Your charms to ruin led the way"
PERFORMER "Handel"
ISRC DEA809317502
INDEX 01 62:57:60
TRACK 22 AUDIO
TITLE "Act II, Scene II - Dalila,Vergin (Duet): My (Her) faith and truth, oh Samson,..."
PERFORMER "Handel"
ISRC DEA809317503
INDEX 00 66:47:24
INDEX 01 66:47:25
TRACK 23 AUDIO
TITLE "Act II, Scene II - Chorus of Virgins: Her faith and truth, oh Samson, prove"
PERFORMER "Handel"
ISRC DEA809317504
INDEX 00 71:31:66
INDEX 01 71:31:67
TRACK 24 AUDIO
TITLE "Act II, Scene II - Dalila (Air): To fleeting pleasures make your court"
PERFORMER "Handel"
ISRC DEA809317505
INDEX 00 72:43:49
INDEX 01 72:43:50
TRACK 25 AUDIO
TITLE "Act II, Scene II - Chorus of Virgins: Her faith and truth, oh Samson, prove"
PERFORMER "Handel"
ISRC DEA809317506
INDEX 00 74:20:74
INDEX 01 74:21:00

CD2

REM GENRE Opera
REM DATE 1992
REM DISCID A310E31C
REM COMMENT "ExactAudioCopy v1.0b3"
CATALOG 0825646926022
PERFORMER "Handel"
TITLE "Samson, Harnoncourt CD2"
FILE "Handel - Samson, Harnoncourt CD2.ape" WAVE
TRACK 01 AUDIO
TITLE "Act II, Scene II - Samson, Dalila (Rec.): N'er think of that!"
PERFORMER "Handel"
ISRC DEA809317507
INDEX 01 00:00:00
TRACK 02 AUDIO
TITLE "Act II, Scene II - Dalila, Samson (Duet): Traitor (Traitress) to love! I'll s..."
PERFORMER "Handel"
ISRC DEA809317508
INDEX 01 01:16:67
TRACK 03 AUDIO
TITLE "Act II, Scene III - Chorus of Israelites: To man God's universal law"
PERFORMER "Handel"
ISRC DEA809317509
INDEX 01 03:35:12
TRACK 04 AUDIO
TITLE "Act II, Scene IV - Harapha (Air): Honour and arms scorn such a foe"
PERFORMER "Handel"
ISRC DEA809317510
INDEX 01 07:54:40
TRACK 05 AUDIO
TITLE "Act II, Scene IV - Samson, Harapha (Duet): Go, baffled coward, go / Presume n..."
PERFORMER "Handel"
ISRC DEA809317511
INDEX 01 13:13:35
TRACK 06 AUDIO
TITLE "Act II, Scene IV - Chorus of Israelites: Hear, Jacob's God, Jehovah, hear!"
PERFORMER "Handel"
ISRC DEA809317512
INDEX 01 16:19:02
TRACK 07 AUDIO
TITLE "Act II, Scene IV - Philistine (Air): To song and dance we give the day"
PERFORMER "Handel"
ISRC DEA809317513
INDEX 01 19:34:02
TRACK 08 AUDIO
TITLE "Act II, Scene IV - Chorus of Philistines: To song and dance we give the day"
PERFORMER "Handel"
ISRC DEA809317514
INDEX 01 20:57:72
TRACK 09 AUDIO
TITLE "Act II, Scene IV - Chorus of Israelites and Philistines: Fix'd in his everlas..."
PERFORMER "Handel"
ISRC DEA809317515
INDEX 01 23:04:15
TRACK 10 AUDIO
TITLE "Act III, Scene I - Micah (Rec.): More trouble is behind: for Harapha"
PERFORMER "Handel"
ISRC DEA809317516
INDEX 00 25:54:17
INDEX 01 25:58:15
TRACK 11 AUDIO
TITLE "Act III, Scene I - Harapha (Air): Presuming slave, to move their wrath"
PERFORMER "Handel"
ISRC DEA809317517
INDEX 01 27:25:15
TRACK 12 AUDIO
TITLE "Act III, Scene I - Chorus of Israelites: With thunder arm'd, great God, arise!"
PERFORMER "Handel"
ISRC DEA809317518
INDEX 01 30:22:10
TRACK 13 AUDIO
TITLE "Act III, Scene I - Samson (Accompagnato): Jehovah's Glory known!"
PERFORMER "Handel"
ISRC DEA809317519
INDEX 01 34:46:07
TRACK 14 AUDIO
TITLE "Act III, Scene I - Samson (Air): Thus when the sun from's wat'ry bed"
PERFORMER "Handel"
ISRC DEA809317520
INDEX 01 35:16:45
TRACK 15 AUDIO
TITLE "Act III, Scene I - Micah (Accompagnato): With might endued above the suns of men"
PERFORMER "Handel"
ISRC DEA809317521
INDEX 01 39:20:17
TRACK 16 AUDIO
TITLE "Act III, Scene I - Micah (Air): The Holy One of Israel be thy guide"
PERFORMER "Handel"
ISRC DEA809317522
INDEX 01 39:52:67
TRACK 17 AUDIO
TITLE "Act III, Scene I - Chorus of Israelites: To fame immortal go"
PERFORMER "Handel"
ISRC DEA809317523
INDEX 01 41:19:52
TRACK 18 AUDIO
TITLE "Act III, Scene II - Philistine (Air): Great Dagon has subdued our foe"
PERFORMER "Handel"
ISRC DEA809317524
INDEX 01 42:40:05
TRACK 19 AUDIO
TITLE "Act III, Scene II - Chorus of Philistines: Great Dagon has subdued our foe"
PERFORMER "Handel"
ISRC DEA809317525
INDEX 01 44:35:37
TRACK 20 AUDIO
TITLE "Act III, Scene II - Manoa (Air): How willing my paternal love"
PERFORMER "Handel"
ISRC DEA809317526
INDEX 01 46:59:35
TRACK 21 AUDIO
TITLE "Act III, Scene II - A Symphony of horror and confusion"
PERFORMER "Handel"
ISRC DEA809317527
INDEX 01 49:48:40
TRACK 22 AUDIO
TITLE "Act III, Scene II - Chorus of Philistines: Hear us, our God, oh hear our cry!"
PERFORMER "Handel"
ISRC DEA809317528
INDEX 01 50:12:32
TRACK 23 AUDIO
TITLE "Act III, Scene II - Micah (Air): Ye sons of Israel, now lament"
PERFORMER "Handel"
ISRC DEA809317529
INDEX 01 53:21:22
TRACK 24 AUDIO
TITLE "Act III, Scene II - Chorus of Israelites: Weep, Israel, weep a louder strain"
PERFORMER "Handel"
ISRC DEA809317530
INDEX 01 55:24:70
TRACK 25 AUDIO
TITLE "Act III, Scene II - A Dead March"
PERFORMER "Handel"
ISRC DEA809317531
INDEX 01 56:35:72
TRACK 26 AUDIO
TITLE "Act III, Scene II - Chorus of Israelites: Glorious hero, may thy grave"
PERFORMER "Handel"
ISRC DEA809317532
INDEX 01 60:18:02
TRACK 27 AUDIO
TITLE "Act III, Scene II - Israelitish woman(Air): Let the bright Seraphim in burnin..."
PERFORMER "Handel"
ISRC DEA809317533
INDEX 01 65:31:10
TRACK 28 AUDIO
TITLE "Act III, Scene II - Chorus of Israelites: Let their celestial concerts all unite"
PERFORMER "Handel"
ISRC DEA809317534
INDEX 01 68:44:55
[teatrix.ru].t18982.torrent 
Торрент: Зарегистрирован [ 2016-03-18 12:25 ] · C4BBDB7AA7275E30866C1655BDD73B69FDC433FC

Скачать .torrent

Скачать

12 KB

Статус: проверено
Скачан: 0 раз
Размер: 548 MB
terms.php



Быстрый ответ

Имя:

      
Для отправки сообщений необходимо включить JavaScript
Показать сообщения:    

Текущее время: 07-Дек 19:29

Часовой пояс: UTC + 3


Вы можете начинать темы
Вы можете отвечать на сообщения
Вы не можете редактировать свои сообщения
Вы не можете удалять свои сообщения
Вы не можете голосовать в опросах
Вы не можете прикреплять файлы к сообщениям
Вы можете скачивать файлы