(Classical) Wolfgang Amadeus Mozart — The Most Admired Piano Concertos (KV 271, 466, 413, 449, 365) (Stanislav Zamborsky, Peter Toperczer, Martin Lapsansky, Pekinel Sisters) — 1998, APE (image+.cue) lossless


Статистика раздачи [Обновить пиров]
Размер:  517 MB   |    Зарегистрирован:  8 месяцев 17 дней   |    Скачан:  0 раз

Полного источника не было: Никогда

Личеров:  6  [  0 KB/s  ]   Подробная статистика пиров
 
   
 
 
 

[Цитировать]

The Most Admired Piano Concertos- Жанр: Classical
Страна-производитель диска: Чехия
Год издания диска: 1998
Издатель (лейбл): Selected Sound Carrier (Prestige classics)
Номер по каталогу: 5127
CATALOG: 7619922918322
Композитор: Wolfgang Amadeus Mozart
Аудио кодек: ape
Тип рипа: image+.cue
Битрейт аудио: lossless
Продолжительность: 02h11'12"
Источник: собственный рип
Наличие сканов в содержимом раздачи: нет-

Треклист

CD1 – 01h02'07"
Piano Concerto № 9 Es-Dur / in E-flat Major KV 271 «Jeunehomme»
01. I. Allegro [00h10'08"]
02. II. Andantino [00h10'19"]
03. III. Rondeau. Presto [00h09'39"]
Slowakisches Kammerorchester / Slovak Chamber Orchestra, cond. Bohdan Warchal, Piano – Stanislav Zamborsky
Piano Concerto № 20 d-moll / in D minor KV 466
04. I. Allegro [00h15'32"]
05. II. Romanze / Romance [00h09'40"]
06. III. Rondo [00h06'49"]
Slowakische Philharmonie / Slovak Philharmonic Orchestra, cond. Ladislav Slovak, Piano – Peter Toperczer
-

EAC log

Exact Audio Copy V0.99 prebeta 5 from 4. May 2009
[br]
Отчёт EAC об извлечении, выполненном 6. августа 2014, 14:39
[br]
Mozart / Piano Concertos № 9, 20
[br]
Дисковод: PIONEER DVD-RW  DVR-111D   Adapter: 1  ID: 0
[br]
Режим чтения                 : Достоверность
Использование точного потока : Да
Отключение кэша аудио        : Да
Использование указателей C2  : Нет
[br]
Коррекция смещения при чтении                     : 48
Способность читать области Lead-in и Lead-out     : Нет
Заполнение пропущенных сэмплов тишиной            : Да
Удаление блоков с тишиной в начале и конце        : Нет
При вычислениях CRC использовались нулевые сэмплы : Да
Интерфейс                                         : Установленный внешний ASPI-интерфейс
[br]
Выходной формат          : Monkey's Audio (без потерь)
Выбранный битрейт        : Normal Lossless Compression
Качество                 : Высокий
Добавление ID3-тэга      : Нет
Утилита сжатия           : C:\Program Files\Monkey's Audio\MAC.exe
[br]
TOC извлечённого CD
[br]
Трек |   Старт  | Длительность | Начальный сектор | Конечный сектор
---------------------------------------------------------------------
1  |  0:00.00 |   10:08.27   |           0      |      45626
2  | 10:08.27 |   10:18.73   |       45627      |      92049
3  | 20:27.25 |    9:38.65   |       92050      |     135464
4  | 30:06.15 |   15:31.47   |      135465      |     205336
5  | 45:37.62 |    9:39.70   |      205337      |     248831
6  | 55:17.57 |    6:49.35   |      248832      |     279541
[br]
Характеристики диапазона извлечения и сообщения об ошибках
[br]
Выбранный диапазон
[br]
Имя файла D:\Музыка lossless\Mozart The Most Admired Piano Concertos\CD1-Piano Concertos № 9, 20\Mozart - Piano Concertos № 9, 20.wav
[br]
Пиковый уровень 94.0 %
Качество диапазона 100.0 %
CRC теста 76634726
CRC копии 76634726
Копирование... OK
[br]
Ошибок не произошло
[br]
AccurateRip: сводка
[br]
Трек  1  точное извлечение (доверие 2)  [C722E3D5]
Трек  2  точное извлечение (доверие 2)  [7A927E10]
Трек  3  точное извлечение (доверие 2)  [F16A22C8]
Трек  4  точность не определена (достоверность 4)  [858E2BA7], AccurateRip вернул [C5C79DCC]
Трек  5  точность не определена (достоверность 4)  [97CFC092], AccurateRip вернул [5380D034]
Трек  6  точность не определена (достоверность 4)  [B565ED7D], AccurateRip вернул [6ABE998A]
[br]
3 трек(и) скопированы точно
3 трек(и) не удалось проверить на точность
[br]
Некоторые треки не прошли проверку на точность
[br]
Конец отчёта
-

CUE

REM GENRE Classical
REM DATE 1998
REM DISCID 4D0E8F06
REM COMMENT "ExactAudioCopy v0.99pb5"
PERFORMER "Mozart"
TITLE "Piano Concertos № 9, 20"
FILE "Mozart - Piano Concertos № 9, 20.ape" WAVE
TRACK 01 AUDIO
TITLE "Piano Concerto № 9 Es-Dur KV 271 - Allegro"
PERFORMER "Mozart"
INDEX 01 00:00:00
TRACK 02 AUDIO
TITLE "Piano Concerto № 9 Es-Dur KV 271 - Andantino"
PERFORMER "Mozart"
INDEX 01 10:08:27
TRACK 03 AUDIO
TITLE "Piano Concerto № 9 Es-Dur KV 271 - Rondeau. Presto"
PERFORMER "Mozart"
INDEX 01 20:27:25
TRACK 04 AUDIO
TITLE "Piano Concerto № 20 d-moll KV 466 - Allegro"
PERFORMER "Mozart"
INDEX 00 29:59:42
INDEX 01 30:06:15
TRACK 05 AUDIO
TITLE "Piano Concerto № 20 d-moll KV 466 - Romanze / Romance"
PERFORMER "Mozart"
INDEX 01 45:37:62
TRACK 06 AUDIO
TITLE "Piano Concerto № 20 d-moll KV 466 - Rondo"
PERFORMER "Mozart"
INDEX 01 55:17:57
-CD2 – 01h09'05"
Piano Concerto № 11 F-Dur / in F Major KV 413
01. I. Allegro [00h09'03"]
02. II. Larghetto [00h06'42"]
03. III. Tempo di Menuetto [00h05'18"]
Piano Concerto № 14 Es-Dur / in E-fiat Major KV 449
04. I. Allegro vivace [00h08'38"]
05. II. Andantino [00h07'27"]
06. III. Allegro ma non troppo [00h06'07"]
Slowakisches Kammerorchester / Slovak Chamber Orchestra, cond. Bohdan Warchal, Piano – Martin Lapsansky
07. 2 Pianos Concerto № 10 Es-Dur / in E-flat Major KV 365 [00h25'50"]
Slowakische Philharmonie / Slovak Philharmonic Orchestra, cond. Zdenek Kosler, Piano Duo – Pekinel Sisters
-

EAC log

Exact Audio Copy V0.99 prebeta 5 from 4. May 2009
[br]
Отчёт EAC об извлечении, выполненном 6. августа 2014, 15:02
[br]
Mozart / Piano Concertos № 10, 11 & 14
[br]
Дисковод: PIONEER DVD-RW  DVR-111D   Adapter: 1  ID: 0
[br]
Режим чтения                 : Достоверность
Использование точного потока : Да
Отключение кэша аудио        : Да
Использование указателей C2  : Нет
[br]
Коррекция смещения при чтении                     : 48
Способность читать области Lead-in и Lead-out     : Нет
Заполнение пропущенных сэмплов тишиной            : Да
Удаление блоков с тишиной в начале и конце        : Нет
При вычислениях CRC использовались нулевые сэмплы : Да
Интерфейс                                         : Установленный внешний ASPI-интерфейс
[br]
Выходной формат          : Monkey's Audio (без потерь)
Выбранный битрейт        : Normal Lossless Compression
Качество                 : Высокий
Добавление ID3-тэга      : Нет
Утилита сжатия           : C:\Program Files\Monkey's Audio\MAC.exe
[br]
TOC извлечённого CD
[br]
Трек |   Старт  | Длительность | Начальный сектор | Конечный сектор
---------------------------------------------------------------------
1  |  0:00.00 |    9:03.32   |           0      |      40756
2  |  9:03.32 |    6:41.58   |       40757      |      70889
3  | 15:45.15 |    5:18.32   |       70890      |      94771
4  | 21:03.47 |    8:38.35   |       94772      |     133656
5  | 29:42.07 |    7:26.45   |      133657      |     167151
6  | 37:08.52 |    6:06.65   |      167152      |     194666
7  | 43:15.42 |   25:49.50   |      194667      |     310891
[br]
Характеристики диапазона извлечения и сообщения об ошибках
[br]
Выбранный диапазон
[br]
Имя файла D:\Музыка lossless\Mozart The Most Admired Piano Concertos\CD2-Piano Concertos № 10, 11 & 14\Mozart - Piano Concertos № 10, 11 & 14.wav
[br]
Пиковый уровень 97.8 %
Качество диапазона 100.0 %
CRC теста 9AD2A9E8
CRC копии 9AD2A9E8
Копирование... OK
[br]
Ошибок не произошло
[br]
AccurateRip: сводка
[br]
Трек  1  точность не определена (достоверность 4)  [61537B4F], AccurateRip вернул [41D3DE82]
Трек  2  точность не определена (достоверность 4)  [BC42B93C], AccurateRip вернул [059C8814]
Трек  3  точность не определена (достоверность 4)  [C750F861], AccurateRip вернул [C3283B72]
Трек  4  точность не определена (достоверность 4)  [44E90643], AccurateRip вернул [9E82FBCC]
Трек  5  точность не определена (достоверность 4)  [4701E1D5], AccurateRip вернул [E78ADA76]
Трек  6  точность не определена (достоверность 4)  [FCACCC1F], AccurateRip вернул [C0D59915]
Трек  7  точность не определена (достоверность 4)  [C9408760], AccurateRip вернул [82FBF31F]
[br]
Ни один трек не прошёл проверки на точность
В вашей базе может быть иной вариант штамповки диска
[br]
Конец отчёта
-

CUE

REM GENRE Classical
REM DATE 1998
REM DISCID 64103107
REM COMMENT "ExactAudioCopy v0.99pb5"
PERFORMER "Mozart"
TITLE "Piano Concertos № 10, 11 & 14"
FILE "Mozart - Piano Concertos № 10, 11 & 14.ape" WAVE
TRACK 01 AUDIO
TITLE "Piano Concerto № 11 F-Dur KV 413 - Allegro"
PERFORMER "Mozart"
INDEX 01 00:00:00
TRACK 02 AUDIO
TITLE "Piano Concerto № 11 F-Dur KV 413 - Larghetto"
PERFORMER "Mozart"
INDEX 01 09:03:32
TRACK 03 AUDIO
TITLE "Piano Concerto № 11 F-Dur KV 413 - Tempo di Menuetto"
PERFORMER "Mozart"
INDEX 01 15:45:15
TRACK 04 AUDIO
TITLE "Piano Concerto № 14 Es-Dur KV 449 - Allegro vivace"
PERFORMER "Mozart"
INDEX 00 20:56:45
INDEX 01 21:03:47
TRACK 05 AUDIO
TITLE "Piano Concerto № 14 Es-Dur KV 449 - Andantino"
PERFORMER "Mozart"
INDEX 01 29:42:07
TRACK 06 AUDIO
TITLE "Piano Concerto № 14 Es-Dur KV 449 - Allegro ma non troppo"
PERFORMER "Mozart"
INDEX 01 37:08:52
TRACK 07 AUDIO
TITLE "2 Pianos Concerto № 10 Es-Dur KV 365"
PERFORMER "Mozart"
INDEX 00 43:08:07
INDEX 01 43:15:42
-
-
[teatrix.ru].t18984.torrent 
Торрент: Зарегистрирован [ 2016-03-18 12:25 ] · 7F225892B8D63C45675092D531B4E3ABDAB9E9C9

Скачать .torrent

Скачать

11 KB

Статус: проверено
Скачан: 0 раз
Размер: 517 MB
terms.php



Быстрый ответ

Имя:

      
Для отправки сообщений необходимо включить JavaScript
Показать сообщения:    

Текущее время: 04-Дек 13:09

Часовой пояс: UTC + 3


Вы можете начинать темы
Вы можете отвечать на сообщения
Вы не можете редактировать свои сообщения
Вы не можете удалять свои сообщения
Вы не можете голосовать в опросах
Вы не можете прикреплять файлы к сообщениям
Вы можете скачивать файлы