Евгений Мартынов. Лебединая верность [1990, Документальный, музыка, поп, хроника, SATRip]


Статистика раздачи [Обновить пиров]
Размер:  621 MB   |    Зарегистрирован:  8 месяцев 17 дней   |    Скачан:  0 раз

Полного источника не было: Никогда

Личеров:  6  [  0 KB/s  ]   Подробная статистика пиров
 
   
 
 
 

[Цитировать]

Евгений Мартынов. Лебединая верность
Дата/Год выпуска: 1990
Страна: СССР, ЦТ
Жанр: Документальный, музыка, поп, хроника
Продолжительность: 00:41:20
Перевод: Не требуется
Русские субтитры: нет
Описание: Документальный фильм о творчестве композитора Евгения Мартынова с участием Софии Ротару, Карела Готта, Яака Йоалы. О композиторе рассказывает поэт Андрей Дементьев. В исполнении Е.Мартынова звучат песни «Яблони в цвету», «Марш-воспоминание», «Белая сирень» и другие. В фильм вошли кадры хроники Великой Отечественной войны.
Его звезда взошла на эстрадном небосклоне далеких семидесятых необычайно ярко, озарив современников добрым светом ясных чистых глаз и счастливой улыбки, одарив их теплом нежного голоса и пленив неповторимой красотой песен. Он был удивительно светлым человеком, и песни, созданные и спетые им, тоже очень добрые и светлые. "Лебединая верность", "Алёнушка", "Яблони в цвету"... Они звучат и теперь, пережив своего создателя и лучшего исполнителя.
качество: SATRip
формат: AVI
Видео: XviD, 1900 Кбит/с, 688х528
Аудио: MP3, 2 ch, 192 Кбит/с

MediaInfo

Complete name                            : D:\Koncerty\Евгений Мартынов.Лебединая верность.1990.SATRip.avi
Format : AVI
Format/Info : Audio Video Interleave
File size : 621 MiB
Duration : 41mn 20s
Overall bit rate : 2 102 Kbps
Writing application : VirtualDubMod 1.5.10.3 | www.virtualdub-fr.org || (build 2550/release)
Writing library : VirtualDubMod build 2550/release
Video
ID : 0
Format : MPEG-4 Visual
Format profile : Advanced Simple@L5
Format settings, BVOP : 2
Format settings, QPel : No
Format settings, GMC : No warppoints
Format settings, Matrix : Default (MPEG)
Codec ID : XVID
Codec ID/Hint : XviD
Duration : 41mn 20s
Bit rate : 1 900 Kbps
Width : 688 pixels
Height : 528 pixels
Display aspect ratio : 4:3
Frame rate : 25.000 fps
Color space : YUV
Chroma subsampling : 4:2:0
Bit depth : 8 bits
Scan type : Progressive
Compression mode : Lossy
Bits/(Pixel*Frame) : 0.209
Stream size : 562 MiB (90%)
Writing library : XviD 1.2.1 (UTC 2008-12-04)
Audio
ID : 1
Format : MPEG Audio
Format version : Version 1
Format profile : Layer 3
Codec ID : 55
Codec ID/Hint : MP3
Duration : 41mn 20s
Bit rate mode : Constant
Bit rate : 192 Kbps
Channel(s) : 2 channels
Sampling rate : 48.0 KHz
Compression mode : Lossy
Stream size : 56.8 MiB (9%)
Alignment : Aligned on interleaves
Interleave, duration : 40 ms (1.00 video frame)
Interleave, preload duration : 504 ms
Writing library : LAME3.99r
Encoding settings : -m s -V 4 -q 0 -lowpass 18.6 -b 192

Скриншоты

[teatrix.ru].t18985.torrent 
Торрент: Зарегистрирован [ 2016-03-18 12:25 ] · 28D67894995C7ED7E03DDF90C6AE26635F68C70A

Скачать .torrent

Скачать

13 KB

Статус: проверено
Скачан: 0 раз
Размер: 621 MB
terms.php



Быстрый ответ

Имя:

      
Для отправки сообщений необходимо включить JavaScript
Показать сообщения:    

Текущее время: 04-Дек 13:18

Часовой пояс: UTC + 3


Вы можете начинать темы
Вы можете отвечать на сообщения
Вы не можете редактировать свои сообщения
Вы не можете удалять свои сообщения
Вы не можете голосовать в опросах
Вы не можете прикреплять файлы к сообщениям
Вы можете скачивать файлы