Я – Брюс Ли/I Am Bruce Lee (Пит МакКормак/Pete McCormack) [08/08/2012, Документалистика, DVB]


Статистика раздачи [Обновить пиров]
Размер:  1.32 GB   |    Зарегистрирован:  8 месяцев 20 дней   |    Скачан:  0 раз

Полного источника не было: Никогда

Личеров:  6  [  0 KB/s  ]   Подробная статистика пиров
 
   
 
 
 

[Цитировать]

Я – Брюс Ли
Дата/Год выпуска: 08/08/2012
Страна: Канада
Жанр: Документалистика
Продолжительность: 01:28:00
Перевод: Профессиональный (многоголосый закадровый)
Русские субтитры: нет
Режиссер: Пит МакКормак/Pete McCormack
Производство: LeeWay Media, Network Entertainment
Сценарий: Грег Дюррелл
Оператор: Йен Керр
Композитор: Шуан Тозир
Телеканал: 1 канал
Описание: Фильм посвящен легендарному актеру, режиссеру, сценаристу, продюсеру, реформатору в области китайских боевых искусств и философу Брюсу Ли.
Несмотря на то, что его жизнь Брюса Ли трагически оборвалась более 40 лет назад, он до сих пор оказывает колоссальное влияние на развитие восточных единоборств и индустрию развлечений, а его талант продолжает восхищать множество людей по всему земному шару. Картина проиллюстрирована огромным количеством эпизодов из известных фильмов. Также в ней впервые демонстрируются фотографии, архивные кадры, интервью с друзьями легенды, актерами и режиссерами, которым посчастливилось работать вместе с Великим Мастером.
Фильм "Брюс Ли" рассказывает удивительную историю жизни одного из самых культовых актеров 20-го столетия, чей образ и жизненная философия стали достоянием как мира боевых искусств, так и мира кинематографа. Он ушел совсем молодым, но остался в памяти друзей, родных, деятелей культуры и спортсменов, которые рассказывают о нем в этом фильме. Его боевая техника на экране до сих пор остается непревзойденной, а мысли и идеи по поводу философии боевых единоборств оказали решающее влияние на становление бесчисленного множества бойцов по всему миру.
Сэмпл: http://multi-up.com/991296
качество: DVB
формат: TS/M2TS
Видео: AVC, аноморф. 720х576, 4:3, 1884 Кбит/сек, 25 fps
Аудио: MPEG Audio, 160 Кбит/сек, 44 КГц, 2 канала

MediaInfo

Общее
Идентификатор : 16 (0x10)
Полное имя : I Am Bruce Lee_SD.ts
Формат : MPEG-TS
Размер файла : 1,32 Гбайт
Продолжительность : 1 ч. 27 м.
Режим общего битрейта : Переменный
Общий поток : 2152 Кбит/сек
Видео
Идентификатор : 1605 (0x645)
Идентификатор меню : 605 (0x25D)
Формат : AVC
Формат/Информация : Advanced Video Codec
Профиль формата : High@L3.0
Параметр CABAC формата : Да
Параметр ReFrames формата : 3 кадра
Идентификатор кодека : 27
Продолжительность : 1 ч. 27 м.
Битрейт : 1884 Кбит/сек
Ширина : 720 пикселей
Высота : 576 пикселей
Соотношение сторон : 4:3
Частота кадров : 25,000 кадров/сек
Стандарт вещания : PAL
Цветовое пространство : YUV
Субдискретизация насыщенности : 4:2:0
Битовая глубина : 8 бит
Тип развёртки : Чересстрочная
Порядок развёртки : Верхнее поле первое
Бит/(Пиксели*Кадры) : 0.182
Размер потока : 1,16 Гбайт (88%)
Основные цвета : BT.601 PAL
Характеристики трансфера : BT.470 System B, BT.470 System G
Коэффициенты матрицы : BT.601
Аудио
Идентификатор : 2605 (0xA2D)
Идентификатор меню : 605 (0x25D)
Формат : MPEG Audio
Версия формата : Version 1
Профиль формата : Layer 2
Идентификатор кодека : 4
Продолжительность : 1 ч. 27 м.
Вид битрейта : Постоянный
Битрейт : 160 Кбит/сек
Каналы : 2 канала
Частота : 48,0 КГц
Метод сжатия : С потерями
Задержка видео : 47 мс.
Размер потока : 101 Мбайт (7%)
Язык : std
Язык, дополнительно : Clean effects

Скриншоты

[teatrix.ru].t18986.torrent 
Торрент: Зарегистрирован [ 2016-03-18 12:25 ] · 89161CCBF133BBF5F3371E57A6F2025244140B4C

Скачать .torrent

Скачать

14 KB

Статус: проверено
Скачан: 0 раз
Размер: 1.32 GB
terms.php



Быстрый ответ

Имя:

      
Для отправки сообщений необходимо включить JavaScript
Показать сообщения:    

Текущее время: 07-Дек 13:42

Часовой пояс: UTC + 3


Вы можете начинать темы
Вы можете отвечать на сообщения
Вы не можете редактировать свои сообщения
Вы не можете удалять свои сообщения
Вы не можете голосовать в опросах
Вы не можете прикреплять файлы к сообщениям
Вы можете скачивать файлы