(Classical, sacred) Juan de Anchieta - Missa Rex Virginum; Motecta - Capilla Penaflorida, Josep Cabre - 2005, FLAC (image+.cue) lossless


Статистика раздачи [Обновить пиров]
Размер:  286 MB   |    Зарегистрирован:  8 месяцев 16 дней   |    Скачан:  0 раз

Полного источника не было: Никогда

Личеров:  4  [  0 KB/s  ]   Подробная статистика пиров
 
   
 
 
 

[Цитировать]

Juan de Anchieta - Missa Rex Virginum; Motecta - Capilla Peñaflorida, Josep Cabré
Жанр: Classical, sacred
Страна-производитель диска: France
Год издания диска: 2005
Издатель (лейбл): K617
Номер по каталогу: K617178
Дата записи: 2005
Аудиокодек: FLAC
Тип рипа: image+.cue
Битрейт аудио: lossless
Продолжительность: 61:09
Источник: собственный рип
Наличие сканов в содержимом раздачи: да
Треклист:
Juan de Anchieta (ca.1462-1523)
Ad Missam
[1] Kyrie (Rex virginum) 4'14
[2] Gloria (Spiritus et alma) 8'03
[3] O bone Jesu 2'41
[4] Credo 5'16
[5] Congratulamini mihi (instrumental) 1'56
[6] Sanctus (Pedro de Escobar) 3'23
[7] Domine, non secundum peccata nostra 2'10
[8] Agnus Dei (Pedro de Escobar) 3'24
Ad Vesperas
[9] Dixit Dominus 3'02
[10] Domine Jesu Christe 2'30
[11] Confitebor Tibi, Domine 3'28
[12] In Passione Domini 2'31
[13] Beatus vir 3'03
[14] Hymnus: Conditor alme siderum 1'44
[15] Magnificat Sexti toni 6'19
[16] Salve Regina (Gonzalo Martínez de Bizcargui) 6'29
Исполнители:
Capilla Peñaflorida
Josep Cabré
direction

Лог создания рипа

Exact Audio Copy V1.0 beta 3 from 29. August 2011
EAC extraction logfile from 21. May 2014, 18:31
Capilla Penaflorida, Josep Cabre / Juan de Anchieta - Missa Rex Virginum; Motecta
Used drive : HL-DT-STDVDRRW GWA-4164B Adapter: 5 ID: 0
Read mode : Secure
Utilize accurate stream : Yes
Defeat audio cache : Yes
Make use of C2 pointers : No
Read offset correction : 102
Overread into Lead-In and Lead-Out : No
Fill up missing offset samples with silence : Yes
Delete leading and trailing silent blocks : No
Null samples used in CRC calculations : Yes
Used interface : Native Win32 interface for Win NT & 2000
Used output format : User Defined Encoder
Selected bitrate : 896 kBit/s
Quality : High
Add ID3 tag : No
Command line compressor : C:\Program Files\Exact Audio Copy\FLAC\FLAC.EXE
Additional command line options : -V -8 %source%
TOC of the extracted CD
Track | Start | Length | Start sector | End sector
---------------------------------------------------------
1 | 0:00.00 | 4:14.63 | 0 | 19112
2 | 4:14.63 | 8:06.28 | 19113 | 55590
3 | 12:21.16 | 2:43.01 | 55591 | 67816
4 | 15:04.17 | 5:18.11 | 67817 | 91677
5 | 20:22.28 | 1:59.21 | 91678 | 100623
6 | 22:21.49 | 3:27.30 | 100624 | 116178
7 | 25:49.04 | 2:14.27 | 116179 | 126255
8 | 28:03.31 | 3:32.51 | 126256 | 142206
9 | 31:36.07 | 3:06.17 | 142207 | 156173
10 | 34:42.24 | 2:33.10 | 156174 | 167658
11 | 37:15.34 | 3:32.20 | 167659 | 183578
12 | 40:47.54 | 2:36.01 | 183579 | 195279
13 | 43:23.55 | 3:04.56 | 195280 | 209135
14 | 46:28.36 | 1:46.50 | 209136 | 217135
15 | 48:15.11 | 6:22.59 | 217136 | 245844
16 | 54:37.70 | 6:29.46 | 245845 | 275065
Range status and errors
Selected range
Filename D:\temp\Music\K617178 - Juan de Anchieta - Missa Rex Virginum; Motecta\Juan de Anchieta - Missa Rex Virginum; Motecta.wav
Peak level 92.2 %
Extraction speed 2.7 X
Range quality 100.0 %
Test CRC A5669B01
Copy CRC A5669B01
Copy OK
No errors occurred
AccurateRip summary
Track 1 accurately ripped (confidence 1) [59A6AC77] (AR v1)
Track 2 accurately ripped (confidence 1) [2D3EB327] (AR v1)
Track 3 accurately ripped (confidence 1) [6996B8BE] (AR v1)
Track 4 accurately ripped (confidence 1) [8F4926DF] (AR v1)
Track 5 accurately ripped (confidence 1) [83DB719C] (AR v1)
Track 6 accurately ripped (confidence 1) [BC0DF7A8] (AR v1)
Track 7 accurately ripped (confidence 1) [AA44818E] (AR v1)
Track 8 accurately ripped (confidence 1) [B13331FC] (AR v1)
Track 9 accurately ripped (confidence 1) [672CAD51] (AR v1)
Track 10 accurately ripped (confidence 1) [1A64AD61] (AR v1)
Track 11 accurately ripped (confidence 1) [11AB03BF] (AR v1)
Track 12 accurately ripped (confidence 1) [917373E2] (AR v1)
Track 13 accurately ripped (confidence 1) [D71BAC7E] (AR v1)
Track 14 accurately ripped (confidence 1) [22A733BF] (AR v1)
Track 15 accurately ripped (confidence 1) [9343945F] (AR v1)
Track 16 accurately ripped (confidence 1) [7BA3DEDD] (AR v1)
All tracks accurately ripped
End of status report
==== Log checksum C2C5E98098D06D151BE5A5C114C085FDAF99A264886707DFB87DFAA91D47812E ====
[teatrix.ru].t18987.torrent 
Торрент: Зарегистрирован [ 2016-03-18 12:32 ] · 6728E1798EA1DBEB797B6531493CD321229B9D4C

Скачать .torrent

Скачать

24 KB

Статус: проверено
Скачан: 0 раз
Размер: 286 MB
terms.php



Быстрый ответ

Имя:

      
Для отправки сообщений необходимо включить JavaScript
Показать сообщения:    

Текущее время: 04-Дек 00:51

Часовой пояс: UTC + 3


Вы можете начинать темы
Вы можете отвечать на сообщения
Вы не можете редактировать свои сообщения
Вы не можете удалять свои сообщения
Вы не можете голосовать в опросах
Вы не можете прикреплять файлы к сообщениям
Вы можете скачивать файлы