(Classical) Franz Schubert — The Great Stringquartets And Other Masterworks (D 667, 760, 810, 780) (Juraj Alexander, Peter Toperczer, Philarmonic Quartet) — 1995, APE (image+.cue) lossless


 

[Цитировать]

The Great Stringquartets And Other Masterworks- Жанр: Classical
Страна-производитель диска: Чехия
Год издания диска: 1995
Издатель (лейбл): Selected Sound Carrier (Prestige classics)
Номер по каталогу: 5139
CATALOG: 7619929159521
Композитор: Franz Peter Schubert
Аудио кодек: ape
Тип рипа: image+.cue
Битрейт аудио: lossless
Продолжительность: 02h11'12"
Источник: собственный рип
Наличие сканов в содержимом раздачи: нет-

Треклист

CD1 – 01h03'10"
Piano Quintet Op 114 D 667 A-Dur / in A Major «The Trout»
01. I. Allegro vivace [00h13'00"]
02. II. Andane [00h06'25"]
03. III. Scherzo. Presto – Trio [00h04'06"]
04. IV. Thema. Andantino – Var. I-VI [00h07'43"]
05. V. Allegro giusto [00h10'18"]
Violoncello – Juraj Alexander, Viola – Milan Telecký, Violine – Viktor Simcisco, Contrabass – Albert Schoefer, Piano – Helena Gáforova
06. Wanderer Fantasy Op 15 D 760 C-Dur / in C Major [00h21'38"]
Piano – Peter Toperczer
-

EAC log

Exact Audio Copy V0.99 prebeta 5 from 4. May 2009
[br]
Отчёт EAC об извлечении, выполненном 6. августа 2014, 15:25
[br]
Schubert / Piano Quintet D 667 & Wanderer Fantasie D 760
[br]
Дисковод: PIONEER DVD-RW  DVR-111D   Adapter: 1  ID: 0
[br]
Режим чтения                 : Достоверность
Использование точного потока : Да
Отключение кэша аудио        : Да
Использование указателей C2  : Нет
[br]
Коррекция смещения при чтении                     : 48
Способность читать области Lead-in и Lead-out     : Нет
Заполнение пропущенных сэмплов тишиной            : Да
Удаление блоков с тишиной в начале и конце        : Нет
При вычислениях CRC использовались нулевые сэмплы : Да
Интерфейс                                         : Установленный внешний ASPI-интерфейс
[br]
Выходной формат          : Monkey's Audio (без потерь)
Выбранный битрейт        : Normal Lossless Compression
Качество                 : Высокий
Добавление ID3-тэга      : Нет
Утилита сжатия           : C:\Program Files\Monkey's Audio\MAC.exe
[br]
TOC извлечённого CD
[br]
Трек |   Старт  | Длительность | Начальный сектор | Конечный сектор
---------------------------------------------------------------------
1  |  0:00.32 |   13:00.08   |          32      |      58539
2  | 13:00.40 |    6:24.40   |       58540      |      87379
3  | 19:25.05 |    4:05.52   |       87380      |     105806
4  | 23:30.57 |    7:42.70   |      105807      |     140526
5  | 31:13.52 |   10:18.33   |      140527      |     186909
6  | 41:32.10 |   21:38.27   |      186910      |     284286
[br]
Характеристики диапазона извлечения и сообщения об ошибках
[br]
Выбранный диапазон
[br]
Имя файла D:\Музыка lossless\Schubert The Great String Quartets\CD1-Piano Quintet D 667 & Wanderer Fantasie D 760\Schubert - Piano Quintet D 667 & Wanderer Fantasie D 760.wav
[br]
Пиковый уровень 100.0 %
Качество диапазона 99.9 %
CRC теста FF278235
CRC копии FF278235
Копирование... OK
[br]
Ошибок не произошло
[br]
AccurateRip: сводка
[br]
Трек  1  точность не определена (достоверность 3)  [BB979597], AccurateRip вернул [9AA7D9F4]
Трек  2  точность не определена (достоверность 4)  [F80DCF61], AccurateRip вернул [47A65EEE]
Трек  3  точность не определена (достоверность 4)  [CF425AC4], AccurateRip вернул [D381138F]
Трек  4  точность не определена (достоверность 4)  [CABF34FF], AccurateRip вернул [8848BA68]
Трек  5  точность не определена (достоверность 4)  [EB1944C7], AccurateRip вернул [F5FA47BD]
Трек  6  точность не определена (достоверность 4)  [85069ACF], AccurateRip вернул [09CB449F]
[br]
Ни один трек не прошёл проверки на точность
В вашей базе может быть иной вариант штамповки диска
[br]
Конец отчёта
-

CUE

REM GENRE Classical
REM DATE 1995
REM DISCID 520ECE06
REM COMMENT "ExactAudioCopy v0.99pb5"
PERFORMER "Schubert"
TITLE "Piano Quintet D 667 & Wanderer Fantasie D 760"
FILE "Schubert - Piano Quintet D 667 & Wanderer Fantasie D 760.ape" WAVE
TRACK 01 AUDIO
TITLE "Piano Quintet D 667 A-Dur - Allegro vivace"
PERFORMER "Schubert"
INDEX 00 00:00:00
INDEX 01 00:00:32
TRACK 02 AUDIO
TITLE "Piano Quintet D 667 A-Dur - Andante"
PERFORMER "Schubert"
INDEX 00 12:58:35
INDEX 01 13:00:40
TRACK 03 AUDIO
TITLE "Piano Quintet D 667 A-Dur - Scherzo"
PERFORMER "Schubert"
INDEX 00 19:22:10
INDEX 01 19:25:05
TRACK 04 AUDIO
TITLE "Piano Quintet D 667 A-Dur - Tema con variazioni"
PERFORMER "Schubert"
INDEX 01 23:30:57
TRACK 05 AUDIO
TITLE "Piano Quintet D 667 A-Dur - Finale allegro giusto"
PERFORMER "Schubert"
INDEX 00 31:12:07
INDEX 01 31:13:52
TRACK 06 AUDIO
TITLE "Wanderer Fantasy Op 15 D 760 C-Dur"
PERFORMER "Schubert"
INDEX 00 41:28:02
INDEX 01 41:32:10
-CD2 – 01h08'02"
String Quartet № 14 D 810 d-moll / in D minor «Death And The Maiden»
01. I. Allegro [00h10'59"]
02. II. Andante con moto [00h13'22"]
03. III. Scherzo: Allegro molto [00h03'49"]
04. IV. Presto [00h09'54"]
Philarmonic Quartet
Moments Musicaux Op 94 D 780 № 1-6
05. I. Moderato C-Dur / in C Major [00h05'10"]
06. II. Andantino As-Dur / in A-flat Major [00h07'21"]
07. III. Allegro moderato f-moll / in F minor [00h01'55"]
08. IV. Moderato cis-moll / in C-sharp minor [00h04'49"]
09. V. Allegro vivace f-moll / in F minor [00h01'58"]
10. VI. Allegretto As-Dur / in A-flat Major [00h08'44"]
Piano – Peter Toperczer-

EAC log

Exact Audio Copy V0.99 prebeta 5 from 4. May 2009
[br]
Отчёт EAC об извлечении, выполненном 6. августа 2014, 15:49
[br]
Schubert / String Quartet № 14 & Moments Musicaux Op 94
[br]
Дисковод: PIONEER DVD-RW  DVR-111D   Adapter: 1  ID: 0
[br]
Режим чтения                 : Достоверность
Использование точного потока : Да
Отключение кэша аудио        : Да
Использование указателей C2  : Нет
[br]
Коррекция смещения при чтении                     : 48
Способность читать области Lead-in и Lead-out     : Нет
Заполнение пропущенных сэмплов тишиной            : Да
Удаление блоков с тишиной в начале и конце        : Нет
При вычислениях CRC использовались нулевые сэмплы : Да
Интерфейс                                         : Установленный внешний ASPI-интерфейс
[br]
Выходной формат          : Monkey's Audio (без потерь)
Выбранный битрейт        : Normal Lossless Compression
Качество                 : Высокий
Добавление ID3-тэга      : Нет
Утилита сжатия           : C:\Program Files\Monkey's Audio\MAC.exe
[br]
TOC извлечённого CD
[br]
Трек |   Старт  | Длительность | Начальный сектор | Конечный сектор
---------------------------------------------------------------------
1  |  0:00.32 |   10:59.28   |          32      |      49484
2  | 10:59.60 |   13:21.72   |       49485      |     109631
3  | 24:21.57 |    3:49.03   |      109632      |     126809
4  | 28:10.60 |    9:54.12   |      126810      |     171371
5  | 38:04.72 |    5:09.65   |      171372      |     194611
6  | 43:14.62 |    7:20.70   |      194612      |     227681
7  | 50:35.57 |    1:55.35   |      227682      |     236341
8  | 52:31.17 |    4:48.55   |      236342      |     257996
9  | 57:19.72 |    1:57.73   |      257997      |     266844
10  | 59:17.70 |    8:44.05   |      266845      |     306149
[br]
Характеристики диапазона извлечения и сообщения об ошибках
[br]
Выбранный диапазон
[br]
Имя файла D:\Музыка lossless\Schubert The Great String Quartets\CD2-String Quartet № 14 & Moments Musicaux Op 94\Schubert - String Quartet № 14 & Moments Musicaux Op 94.wav
[br]
Пиковый уровень 100.0 %
Качество диапазона 100.0 %
CRC теста 88731798
CRC копии 88731798
Копирование... OK
[br]
Ошибок не произошло
[br]
AccurateRip: сводка
[br]
Трек  1  точное извлечение (доверие 3)  [D12A2D02]
Трек  2  точное извлечение (доверие 3)  [50427E9B]
Трек  3  точное извлечение (доверие 2)  [1B37E6D2]
Трек  4  точность не определена (достоверность 7)  [8896698B], AccurateRip вернул [AE97BF70]
Трек  5  точное извлечение (доверие 2)  [64E1BDEC]
Трек  6  точное извлечение (доверие 2)  [5C9B822E]
Трек  7  точное извлечение (доверие 2)  [A52598F4]
Трек  8  точное извлечение (доверие 2)  [4EFA21BE]
Трек  9  точное извлечение (доверие 2)  [6C7E0554]
Трек 10  точное извлечение (доверие 2)  [D65D62B7]
[br]
9 трек(и) скопированы точно
1 трек(и) не удалось проверить на точность
[br]
Некоторые треки не прошли проверку на точность
[br]
Конец отчёта
-

CUE

REM GENRE Classical
REM DATE 1995
REM DISCID 920FF20A
REM COMMENT "ExactAudioCopy v0.99pb5"
PERFORMER "Schubert"
TITLE "String Quartet № 14 & Moments Musicaux Op 94"
FILE "Schubert - String Quartet № 14 & Moments Musicaux Op 94.ape" WAVE
TRACK 01 AUDIO
TITLE "String Quartet № 14 D 810 - Allegro"
PERFORMER "Schubert"
INDEX 00 00:00:00
INDEX 01 00:00:32
TRACK 02 AUDIO
TITLE "String Quartet № 14 D 810 - Andante con moto"
PERFORMER "Schubert"
INDEX 00 10:55:65
INDEX 01 10:59:60
TRACK 03 AUDIO
TITLE "String Quartet № 14 D 810 - Scherzo: Allegro molto"
PERFORMER "Schubert"
INDEX 00 24:17:60
INDEX 01 24:21:57
TRACK 04 AUDIO
TITLE "String Quartet № 14 D 810 - Presto"
PERFORMER "Schubert"
INDEX 00 28:09:25
INDEX 01 28:10:60
TRACK 05 AUDIO
TITLE "Moments Musicaux Op 94 D 780 № 1-6 - Moderato"
PERFORMER "Schubert"
INDEX 00 38:02:40
INDEX 01 38:04:72
TRACK 06 AUDIO
TITLE "Moments Musicaux Op 94 D 780 № 1-6 - Andantino"
PERFORMER "Schubert"
INDEX 00 43:13:36
INDEX 01 43:14:62
TRACK 07 AUDIO
TITLE "Moments Musicaux Op 94 D 780 № 1-6 - Allegro moderato"
PERFORMER "Schubert"
INDEX 00 50:31:70
INDEX 01 50:35:57
TRACK 08 AUDIO
TITLE "Moments Musicaux Op 94 D 780 № 1-6 - Moderato"
PERFORMER "Schubert"
INDEX 00 52:29:72
INDEX 01 52:31:17
TRACK 09 AUDIO
TITLE "Moments Musicaux Op 94 D 780 № 1-6 - Allegro vivace"
PERFORMER "Schubert"
INDEX 00 57:17:35
INDEX 01 57:19:72
TRACK 10 AUDIO
TITLE "Moments Musicaux Op 94 D 780 № 1-6 - Allegretto"
PERFORMER "Schubert"
INDEX 00 59:15:20
INDEX 01 59:17:70
-
-



Показать сообщения:    

Текущее время: 11-Дек 14:58

Часовой пояс: UTC + 3


Вы не можете начинать темы
Вы не можете отвечать на сообщения
Вы не можете редактировать свои сообщения
Вы не можете удалять свои сообщения
Вы не можете голосовать в опросах
Вы не можете прикреплять файлы к сообщениям
Вы не можете скачивать файлы