(Classical) Johann Sebastian Bach - Concertos - Janine Jansen & Friends - 2013, FLAC (image+.cue) lossless


Статистика раздачи [Обновить пиров]
Размер:  385 MB   |    Зарегистрирован:  8 месяцев 22 дня   |    Скачан:  0 раз

Полного источника не было: Никогда

Личеров:  6  [  0 KB/s  ]   Подробная статистика пиров
 
   
 
 
 

[Цитировать]

Johann Sebastian Bach - Concertos - Janine Jansen & Friends
Жанр: Classical
Год издания диска: 2013
Издатель (лейбл): Decca
Дата записи: 2013
Аудиокодек: FLAC
Тип рипа: image+.cue
Битрейт аудио: lossless
Продолжительность: 71:54
Источник: собственный рип
Наличие сканов в содержимом раздачи: да
Треклист:
Johann Sebastian Bach (1685-1750)
[1]-[3] Violin Concerto in E major, BWV1042
[4]-[6] Violin Concerto in A minor, BWV1041
[7]-[9] Concerto for Violin and Oboe in C minor, BWV1060
[10]-[13] Sonata for Harpsichord and Violin No.3 in E major, BWV1016
[14]-[17] Sonata for Harpsichord and Violin No.4 in C minor, BWV1017
Исполнители:
Janine Jansen & Friends
Janine Jansen violin
Ramón Ortega Quero oboe
Jan Jansen harpsichord
Boris Brovtsyn, Cindy Albracht, Fredrik Paulsson,
Julia-Maria Kretz, Tijmen Huisingh, Monika Urbonaite
violins
Nimrod Guez, Pauline Sachse violas
Maarten Jansen cello
Rick Stotijn double bass

Лог создания рипа

Exact Audio Copy V1.0 beta 3 from 29. August 2011
EAC extraction logfile from 4. July 2014, 17:04
Janine Jansen / Bach - Concertos
Used drive : HL-DT-STDVDRRW GWA-4164B Adapter: 5 ID: 0
Read mode : Secure
Utilize accurate stream : Yes
Defeat audio cache : Yes
Make use of C2 pointers : No
Read offset correction : 102
Overread into Lead-In and Lead-Out : No
Fill up missing offset samples with silence : Yes
Delete leading and trailing silent blocks : No
Null samples used in CRC calculations : Yes
Used interface : Native Win32 interface for Win NT & 2000
Used output format : User Defined Encoder
Selected bitrate : 896 kBit/s
Quality : High
Add ID3 tag : No
Command line compressor : C:\Program Files\Exact Audio Copy\FLAC\FLAC.EXE
Additional command line options : -V -8 %source%
TOC of the extracted CD
Track | Start | Length | Start sector | End sector
---------------------------------------------------------
1 | 0:00.00 | 7:25.51 | 0 | 33425
2 | 7:25.51 | 6:04.47 | 33426 | 60772
3 | 13:30.23 | 2:40.38 | 60773 | 72810
4 | 16:10.61 | 3:41.69 | 72811 | 89454
5 | 19:52.55 | 5:38.48 | 89455 | 114852
6 | 25:31.28 | 3:31.31 | 114853 | 130708
7 | 29:02.59 | 4:58.74 | 130709 | 153132
8 | 34:01.58 | 5:09.67 | 153133 | 176374
9 | 39:11.50 | 3:33.11 | 176375 | 192360
10 | 42:44.61 | 3:36.36 | 192361 | 208596
11 | 46:21.22 | 2:45.44 | 208597 | 221015
12 | 49:06.66 | 4:27.49 | 221016 | 241089
13 | 53:34.40 | 3:44.35 | 241090 | 257924
14 | 57:19.00 | 4:06.10 | 257925 | 276384
15 | 61:25.10 | 4:14.61 | 276385 | 295495
16 | 65:39.71 | 3:00.71 | 295496 | 309066
17 | 68:40.67 | 3:12.50 | 309067 | 323516
Range status and errors
Selected range
Filename D:\temp\Music\Bach - Concertos - Janine Jansen & Friends\Bach - Concertos.wav
Peak level 95.6 %
Extraction speed 2.7 X
Range quality 100.0 %
Test CRC 4871B115
Copy CRC 4871B115
Copy OK
No errors occurred
AccurateRip summary
Track 1 accurately ripped (confidence 25) [28E27498] (AR v2)
Track 2 accurately ripped (confidence 25) [FB8ABA09] (AR v2)
Track 3 accurately ripped (confidence 25) [A16698CF] (AR v2)
Track 4 accurately ripped (confidence 26) [F25D640F] (AR v2)
Track 5 accurately ripped (confidence 25) [920BC4DB] (AR v2)
Track 6 accurately ripped (confidence 25) [2D8A8CB2] (AR v2)
Track 7 accurately ripped (confidence 26) [AEDEDEFE] (AR v2)
Track 8 accurately ripped (confidence 27) [3D7518E5] (AR v2)
Track 9 accurately ripped (confidence 26) [0313BE5C] (AR v2)
Track 10 accurately ripped (confidence 26) [E7924838] (AR v2)
Track 11 accurately ripped (confidence 26) [DB019DB2] (AR v2)
Track 12 accurately ripped (confidence 26) [24CEA908] (AR v2)
Track 13 accurately ripped (confidence 26) [6ECC4C9A] (AR v2)
Track 14 accurately ripped (confidence 26) [66056B27] (AR v2)
Track 15 accurately ripped (confidence 27) [F59F7624] (AR v2)
Track 16 accurately ripped (confidence 27) [69561A88] (AR v2)
Track 17 accurately ripped (confidence 26) [19EE32FF] (AR v2)
All tracks accurately ripped
End of status report
==== Log checksum 36BEE723B069C11B2CE1A45072F48E158D16A91F164E1F340BA40AD45E356451 ====
[teatrix.ru].t18989.torrent 
Торрент: Зарегистрирован [ 2016-03-18 12:32 ] · 4B04FEC4CEA52E40A965E9D7F6F01A3B39428C74

Скачать .torrent

Скачать

32 KB

Статус: проверено
Скачан: 0 раз
Размер: 385 MB
terms.php



Быстрый ответ

Имя:

      
Для отправки сообщений необходимо включить JavaScript
Показать сообщения:    

Текущее время: 10-Дек 04:04

Часовой пояс: UTC + 3


Вы можете начинать темы
Вы можете отвечать на сообщения
Вы не можете редактировать свои сообщения
Вы не можете удалять свои сообщения
Вы не можете голосовать в опросах
Вы не можете прикреплять файлы к сообщениям
Вы можете скачивать файлы