(Contemporary) Present : Danish contemporary music 2003 (Holmen, Andersen, Gudmundsen-Holmgreen, Rosing-Schow, Nordentoft, Horsving)- 2003, FLAC (tracks) lossless


 

[Цитировать]

Present : Danish contemporary music 2003
Жанр: Contemporary
Страна-производитель диска: Denmark
Год издания диска: 2003
Издатель (лейбл): Copenhagen : SNYK
Номер по каталогу: MXPCD 0203
Дата записи: 1997-2002
Аудиокодек: FLAC
Тип рипа: tracks
Битрейт аудио: lossless
Продолжительность: 1:04:58
Источник: собственный рип
Наличие сканов в содержимом раздачи: нет
Треклист:
01. Jexper Holmen - Tension II : Into Your Mind
02. Simon Steer Andersen - Praesens
03. Pelle Gudmundsen-Holmgreen - Territorial Song
04. Niels Rosing-Schow - Spiral Ladder II
05. Anders Nordentoft - On This Planet (extracts) 1. In the Valley
06. Anders Nordentoft - On This Planet (extracts) 2. Whispering Sleep
07. Anders Nordentoft - On This Planet (extracts) 3. Don't Be Afraid
08. Opiate - 7 Circles, Opiate Version
09. Jens Hørsving - ROTO (extracts)
Исполнители:
Klaudia Kidon & Anders Borbye
Århus Sinfonietta, director: Søren K. Hansen
LIN-Ensemble
Geir Draugsvoll & James Crabb
Thomas Sandberg & Athelas Sinfonietta Copenhagen, director: Morten Ryelund Sørensen
Opiate
Anna Klett

Лог создания рипа

Exact Audio Copy V1.0 beta 3 from 29. August 2011
Отчёт EAC об извлечении, выполненном 20. августа 2014, 0:14
Various Artists / Present : Danish contemporary music 2003
Дисковод: ASUS DRW-22B2S Adapter: 2 ID: 0
Режим чтения : Достоверность
Использование точного потока : Да
Отключение кэша аудио : Да
Использование указателей C2 : Нет
Коррекция смещения при чтении : 6
Способность читать области Lead-in и Lead-out : Нет
Заполнение пропущенных сэмплов тишиной : Да
Удаление блоков с тишиной в начале и конце : Нет
При вычислениях CRC использовались нулевые сэмплы : Да
Интерфейс : Встроенный Win32-интерфейс для Win NT/2000
Обработка зазоров : Добавлено к предыдущему треку
Выходной формат : Внутренние WAV-операции
Формат сэмплов : 44.100 Гц; 16 бит; стерео
TOC извлечённого CD
Трек | Старт | Длительность | Начальный сектор | Конечный сектор
---------------------------------------------------------------------
1 | 0:00.00 | 5:12.26 | 0 | 23425
2 | 5:12.26 | 14:56.15 | 23426 | 90640
3 | 20:08.41 | 13:20.12 | 90641 | 150652
4 | 33:28.53 | 7:40.13 | 150653 | 185165
5 | 41:08.66 | 2:05.32 | 185166 | 194572
6 | 43:14.23 | 1:36.24 | 194573 | 201796
7 | 44:50.47 | 2:58.51 | 201797 | 215197
8 | 47:49.23 | 5:06.11 | 215198 | 238158
9 | 52:55.34 | 12:02.07 | 238159 | 292315
Трек 1
Имя файла R:\Various Artists\Present - Danish contemporary music 2003\01. (Jexper Holmen) - Tension II - Into Your Mind.wav
Длина предзазора 0:00:02.00
Пиковый уровень 99.9 %
Скорость извлечения 2.3 X
Качество трека 100.0 %
CRC копии 72852829
Трек не обнаружен в базе AccurateRip
Копирование... OK
Трек 2
Имя файла R:\Various Artists\Present - Danish contemporary music 2003\02. (Simon Steer Andersen) - Praesens.wav
Длина предзазора 0:00:01.74
Пиковый уровень 78.4 %
Скорость извлечения 4.1 X
Качество трека 100.0 %
CRC копии 7A2D9307
Трек не обнаружен в базе AccurateRip
Копирование... OK
Трек 3
Имя файла R:\Various Artists\Present - Danish contemporary music 2003\03. (Pelle Gudmundsen-Holmgreen) - Territorial Song.wav
Длина предзазора 0:00:01.43
Пиковый уровень 99.9 %
Скорость извлечения 5.0 X
Качество трека 100.0 %
CRC копии 283678DF
Трек не обнаружен в базе AccurateRip
Копирование... OK
Трек 4
Имя файла R:\Various Artists\Present - Danish contemporary music 2003\04. (Niels Rosing-Schow) - Spiral Ladder II.wav
Длина предзазора 0:00:03.53
Пиковый уровень 89.0 %
Скорость извлечения 5.4 X
Качество трека 100.0 %
CRC копии 5276C6CC
Трек не обнаружен в базе AccurateRip
Копирование... OK
Трек 5
Имя файла R:\Various Artists\Present - Danish contemporary music 2003\05. (Anders Nordentoft) - On This Planet (extracts) 1. In the Valley.wav
Длина предзазора 0:00:01.51
Пиковый уровень 70.5 %
Скорость извлечения 4.7 X
Качество трека 100.0 %
CRC копии 8282921A
Трек не обнаружен в базе AccurateRip
Копирование... OK
Трек 6
Имя файла R:\Various Artists\Present - Danish contemporary music 2003\06. (Anders Nordentoft) - On This Planet (extracts) 2. Whispering Sleep.wav
Длина предзазора 0:00:02.10
Пиковый уровень 70.5 %
Скорость извлечения 4.5 X
Качество трека 100.0 %
CRC копии F5189774
Трек не обнаружен в базе AccurateRip
Копирование... OK
Трек 7
Имя файла R:\Various Artists\Present - Danish contemporary music 2003\07. (Anders Nordentoft) - On This Planet (extracts) 3. Don't Be Afraid.wav
Длина предзазора 0:00:02.22
Пиковый уровень 43.0 %
Скорость извлечения 5.2 X
Качество трека 100.0 %
CRC копии D402DAE0
Трек не обнаружен в базе AccurateRip
Копирование... OK
Трек 8
Имя файла R:\Various Artists\Present - Danish contemporary music 2003\08. (Opiate) - 7 Circles, Opiate Version.wav
Длина предзазора 0:00:01.36
Пиковый уровень 76.0 %
Скорость извлечения 5.8 X
Качество трека 100.0 %
CRC копии B8D4C53F
Трек не обнаружен в базе AccurateRip
Копирование... OK
Трек 9
Имя файла R:\Various Artists\Present - Danish contemporary music 2003\09. (Jens Hørsving) - ROTO (extracts).wav
Длина предзазора 0:00:01.19
Пиковый уровень 62.9 %
Скорость извлечения 6.0 X
Качество трека 99.9 %
CRC копии 8481A191
Трек не обнаружен в базе AccurateRip
Копирование... OK
Ни одного трека нет в базе AccurateRip
Ошибок не произошло
Конец отчёта
---- CUETools DB Plugin V2.1.3
[CTDB TOCID: xq8KNfBMvXvvD_hIfXQG.4EPwho-] found, Submit result: already submitted
[137c1cb9] (1/1) Accurately ripped
==== Контрольная сумма отчёта 54B40B74CE2CE9E64E096A988F3C3A3FF534950EDDC0BD98496933CF7DA04B98 ====

CUE-sheet

REM DATE 2003
REM DISCID 6B0F3909
REM COMMENT "ExactAudioCopy v1.0b3"
PERFORMER "Various Artists"
TITLE "Present : Danish contemporary music 2003"
FILE "01. (Jexper Holmen) - Tension II - Into Your Mind.wav" WAVE
TRACK 01 AUDIO
TITLE "Tension II : Into Your Mind"
PERFORMER "Jexper Holmen"
INDEX 01 00:00:00
TRACK 02 AUDIO
TITLE "Praesens"
PERFORMER "Simon Steer Andersen"
INDEX 00 05:10:27
FILE "02. (Simon Steer Andersen) - Praesens.wav" WAVE
INDEX 01 00:00:00
TRACK 03 AUDIO
TITLE "Territorial Song"
PERFORMER "Pelle Gudmundsen-Holmgreen"
INDEX 00 14:54:47
FILE "03. (Pelle Gudmundsen-Holmgreen) - Territorial Song.wav" WAVE
INDEX 01 00:00:00
TRACK 04 AUDIO
TITLE "Spiral Ladder II"
PERFORMER "Niels Rosing-Schow"
INDEX 00 13:16:34
FILE "04. (Niels Rosing-Schow) - Spiral Ladder II.wav" WAVE
INDEX 01 00:00:00
TRACK 05 AUDIO
TITLE "On This Planet (extracts) 1. In the Valley"
PERFORMER "Anders Nordentoft"
INDEX 00 07:38:37
FILE "05. (Anders Nordentoft) - On This Planet (extracts) 1. In the Valley.wav" WAVE
INDEX 01 00:00:00
TRACK 06 AUDIO
TITLE "On This Planet (extracts) 2. Whispering Sleep"
PERFORMER "Anders Nordentoft"
INDEX 00 02:03:22
FILE "06. (Anders Nordentoft) - On This Planet (extracts) 2. Whispering Sleep.wav" WAVE
INDEX 01 00:00:00
TRACK 07 AUDIO
TITLE "On This Planet (extracts) 3. Don't Be Afraid"
PERFORMER "Anders Nordentoft"
INDEX 00 01:34:02
FILE "07. (Anders Nordentoft) - On This Planet (extracts) 3. Don't Be Afraid.wav" WAVE
INDEX 01 00:00:00
TRACK 08 AUDIO
TITLE "7 Circles, Opiate Version"
PERFORMER "Opiate"
INDEX 00 02:57:15
FILE "08. (Opiate) - 7 Circles, Opiate Version.wav" WAVE
INDEX 01 00:00:00
TRACK 09 AUDIO
TITLE "ROTO (extracts)"
PERFORMER "Jens Horsving"
INDEX 00 05:04:67
FILE "09. (Jens Horsving) - ROTO (extracts).wav" WAVE
INDEX 01 00:00:00



Показать сообщения:    

Текущее время: 06-Дек 15:13

Часовой пояс: UTC + 3


Вы не можете начинать темы
Вы не можете отвечать на сообщения
Вы не можете редактировать свои сообщения
Вы не можете удалять свои сообщения
Вы не можете голосовать в опросах
Вы не можете прикреплять файлы к сообщениям
Вы не можете скачивать файлы