(Vocal) Bertolt Brecht - Lieder und Balladen (Degenhardt, Wieder, Messemer, Kollo, Milva, Ebstein, von Otter) - 2006, APE (image+.cue) lossless


 

[Цитировать]

Bertolt Brecht - Lieder und Balladen
Жанр: Vocal
Страна-производитель диска: Germany
Год издания диска: 2006
Издатель (лейбл): Decca
Номер по каталогу: 442 8696
Дата записи: 1968-1994
Аудиокодек: APE
Тип рипа: image+.cue
Битрейт аудио: lossless
Продолжительность: 75'43
Источник: собственный рип
Наличие сканов в содержимом раздачи: да
Треклист/Исполнители:
1. Die Moritat von Meckie Messer
2. Salomo-Song
3. Die Ballada vom angenehmene Leben
Franz Josef Degenhardt
Hanne Wieder
Hannes Messemer

Orchester James Last
4. Die Apfelböck oder die Lilien auf dem Felde
5. Deutsche Miserere
Therese Giese
Peter Fischer, musikalische Leitung
6. Das Lied von der Moldau
7. Das Lied vom SA-Mann
8. Lied einer deutschen Mutter
Katja Ebstein
Frederike Huck, klavier
Wolfgang Schmid, gitarre
9. Denn wie man sich bettet
10. Alabama-Song
Ute Lemper
RIAS Berlin Kammerensemble
John Mauceri
11. Zuhälterballade
12. Die Seeräuber-Jenny
13. Das Lied von der Unzulänglichkeit menschlichen Strebens
René Kollo
Milva
Mario Adorf

RIAS Berlin Sinfonietta
John Mauceri
14. Die Ballade von der sexuellen Hörigkeit
Ute Lemper
RIAS Berlin Kammerensemble
John Mauceri
15. Was die Herren Matrosen sagen
Ute Lemper
RIAS Berlin Sinfonietta
John Mauceri
16. Ballada vom Weib und dem Soldaten
Klaus Kinski
Ingo Wetzler, gitarre
17. Das Lied von der Judenhure Marie Sanders
18. Erinnerungen an Marie A.
Katja Ebstein
Wolfgang Schmid, gitarre
19. Bilbao Song
20. Surabaya-Jonny
Anne Sofie von Otter
NDR-Sinfonieorchester
Sir John Eliot Gardiner

Лог создания рипа

Exact Audio Copy V1.0 beta 3 from 29. August 2011
EAC extraction logfile from 5. August 2014, 1:10
Bertolt Brecht / Lieder und Balladen
Used drive : TSSTcorpCDDVDW SE-208AB Adapter: 1 ID: 0
Read mode : Secure
Utilize accurate stream : Yes
Defeat audio cache : Yes
Make use of C2 pointers : No
Read offset correction : 6
Overread into Lead-In and Lead-Out : No
Fill up missing offset samples with silence : Yes
Delete leading and trailing silent blocks : No
Null samples used in CRC calculations : Yes
Used interface : Native Win32 interface for Win NT & 2000
Used output format : Monkey's Audio Lossless Encoder
Selected bitrate : High Lossless Compression
Quality : High
Add ID3 tag : No
Command line compressor : C:\Program Files (x86)\Exact Audio Copy\MAC\MAC.exe
TOC of the extracted CD
Track | Start | Length | Start sector | End sector
---------------------------------------------------------
1 | 0:00.00 | 3:41.70 | 0 | 16644
2 | 3:41.70 | 3:27.15 | 16645 | 32184
3 | 7:09.10 | 2:47.41 | 32185 | 44750
4 | 9:56.51 | 4:55.19 | 44751 | 66894
5 | 14:51.70 | 2:23.18 | 66895 | 77637
6 | 17:15.13 | 1:56.30 | 77638 | 86367
7 | 19:11.43 | 2:43.07 | 86368 | 98599
8 | 21:54.50 | 2:37.58 | 98600 | 110432
9 | 24:32.33 | 4:28.56 | 110433 | 130588
10 | 29:01.14 | 4:38.35 | 130589 | 151473
11 | 33:39.49 | 5:11.16 | 151474 | 174814
12 | 38:50.65 | 3:31.74 | 174815 | 190713
13 | 42:22.64 | 2:22.17 | 190714 | 201380
14 | 44:45.06 | 3:21.32 | 201381 | 216487
15 | 48:06.38 | 6:59.38 | 216488 | 247950
16 | 55:06.01 | 5:57.65 | 247951 | 274790
17 | 61:03.66 | 2:14.60 | 274791 | 284900
18 | 63:18.51 | 2:24.45 | 284901 | 295745
19 | 65:43.21 | 4:28.24 | 295746 | 315869
20 | 70:11.45 | 6:00.53 | 315870 | 342922
Range status and errors
Selected range
Filename D:\EAC\Bertolt Brecht - Lieder und Balladen.wav
Peak level 100.0 %
Extraction speed 5.2 X
Range quality 99.9 %
Test CRC CF6ACC19
Copy CRC CF6ACC19
Copy OK
No errors occurred
AccurateRip summary
Track 1 accurately ripped (confidence 2) [AF63AE59] (AR v1)
Track 2 accurately ripped (confidence 2) [711F195C] (AR v1)
Track 3 accurately ripped (confidence 2) [49DF0A87] (AR v1)
Track 4 accurately ripped (confidence 2) [B330D160] (AR v1)
Track 5 accurately ripped (confidence 2) [2CC8BA86] (AR v1)
Track 6 accurately ripped (confidence 2) [46CF6467] (AR v1)
Track 7 accurately ripped (confidence 2) [4018E016] (AR v1)
Track 8 accurately ripped (confidence 2) [E8F07004] (AR v1)
Track 9 accurately ripped (confidence 2) [DE287FCC] (AR v1)
Track 10 accurately ripped (confidence 2) [31F610F4] (AR v1)
Track 11 accurately ripped (confidence 2) [CC1578CE] (AR v1)
Track 12 accurately ripped (confidence 2) [612B5D86] (AR v1)
Track 13 accurately ripped (confidence 2) [991D307A] (AR v1)
Track 14 accurately ripped (confidence 2) [4E0893FC] (AR v1)
Track 15 accurately ripped (confidence 2) [117D5D9E] (AR v1)
Track 16 accurately ripped (confidence 2) [CB5C33C3] (AR v1)
Track 17 accurately ripped (confidence 2) [9D630AE0] (AR v1)
Track 18 accurately ripped (confidence 2) [FCF62357] (AR v1)
Track 19 accurately ripped (confidence 2) [A20EAA6F] (AR v1)
Track 20 accurately ripped (confidence 2) [1AB51550] (AR v1)
All tracks accurately ripped
End of status report
---- CUETools DB Plugin V2.1.3
[CTDB TOCID: I28e4vLmbSGoiEaF7HJe7eCIdCg-] found, Submit result: I28e4vLmbSGoiEaF7HJe7eCIdCg- has been confirmed
[11a4aef3] (1/1) Accurately ripped
==== Log checksum 51EC9913DBFE9CCC074B1561A37052DA62748AB0B73AE18B0A2BE598D9CDC761 ====

Содержание индексной карты (.CUE)

REM GENRE Vocal
REM DATE 2006
REM DISCID 1611DC14
REM COMMENT "ExactAudioCopy v1.0b3"
CATALOG 0028944286984
PERFORMER "Bertolt Brecht"
TITLE "Lieder und Balladen"
FILE "Bertolt Brecht - Lieder und Balladen.ape" WAVE
TRACK 01 AUDIO
TITLE "Die Moritat von Meckie Messer"
PERFORMER "Franz Josef Degenhardt"
ISRC DEN120403465
INDEX 01 00:00:00
TRACK 02 AUDIO
TITLE "Salomo-Song"
PERFORMER "Hanne Wieder"
ISRC DEN120403476
INDEX 00 03:40:17
INDEX 01 03:41:70
TRACK 03 AUDIO
TITLE "Die Ballada vom angenehmene Leben"
PERFORMER "Hannes Messemer"
ISRC DEN120403462
INDEX 00 07:07:15
INDEX 01 07:09:10
TRACK 04 AUDIO
TITLE "Die Apfelböck oder die Lilien auf dem Felde"
PERFORMER "Therese Giese"
ISRC DEUM70603817
INDEX 00 09:54:70
INDEX 01 09:56:51
TRACK 05 AUDIO
TITLE "Deutsche Miserere"
PERFORMER "Therese Giese"
ISRC DEUM70603795
INDEX 00 14:50:24
INDEX 01 14:51:70
TRACK 06 AUDIO
TITLE "Das Lied von der Moldau"
PERFORMER "Katja Ebstein"
ISRC DEF069813070
INDEX 00 17:13:31
INDEX 01 17:15:13
TRACK 07 AUDIO
TITLE "Das Lied vom SA-Mann"
PERFORMER "Katja Ebstein"
ISRC DEF069813110
INDEX 00 19:10:29
INDEX 01 19:11:43
TRACK 08 AUDIO
TITLE "Lied einer deutschen Mutter"
PERFORMER "Katja Ebstein"
ISRC DEF069813130
INDEX 00 21:53:11
INDEX 01 21:54:50
TRACK 09 AUDIO
TITLE "Denn wie man sich bettet"
PERFORMER "Ute Lemper"
ISRC GBF078810142
INDEX 00 24:30:58
INDEX 01 24:32:33
TRACK 10 AUDIO
TITLE "Alabama-Song"
PERFORMER "Ute Lemper"
ISRC GBF078810141
INDEX 00 28:59:35
INDEX 01 29:01:14
TRACK 11 AUDIO
TITLE "Zuhälterballade"
PERFORMER "René Kollo"
ISRC GBF078841515
INDEX 00 33:37:61
INDEX 01 33:39:49
TRACK 12 AUDIO
TITLE "Die Seeräuber-Jenny"
PERFORMER "Milva"
ISRC GBF078841516
INDEX 00 38:48:23
INDEX 01 38:50:65
TRACK 13 AUDIO
TITLE "Das Lied von der Unzulänglichkeit menschlichen Strebens"
PERFORMER "Mario Adorf"
ISRC GBF078841522
INDEX 00 42:21:38
INDEX 01 42:22:64
TRACK 14 AUDIO
TITLE "Die Ballade von der sexuellen Hörigkeit"
PERFORMER "Ute Lemper"
ISRC GBF078810123
INDEX 00 44:42:43
INDEX 01 44:45:06
TRACK 15 AUDIO
TITLE "Was die Herren Matrosen sagen"
PERFORMER "Ute Lemper"
ISRC GBF079142903
INDEX 00 48:05:44
INDEX 01 48:06:38
TRACK 16 AUDIO
TITLE "Ballada vom Weib und dem Soldaten"
PERFORMER "Klaus Kinski"
ISRC DEUM70604762
INDEX 00 55:04:54
INDEX 01 55:06:01
TRACK 17 AUDIO
TITLE "Das Lied von der Judenhure Marie Sanders"
PERFORMER "Katja Ebstein"
ISRC DEF069813200
INDEX 00 61:01:09
INDEX 01 61:03:66
TRACK 18 AUDIO
TITLE "Erinnerungen an Marie A."
PERFORMER "Katja Ebstein"
ISRC DEF069813310
INDEX 00 63:17:09
INDEX 01 63:18:51
TRACK 19 AUDIO
TITLE "Bilbao Song"
PERFORMER "Anne Sofie von Otter"
ISRC DEF059303950
INDEX 00 65:41:29
INDEX 01 65:43:21
TRACK 20 AUDIO
TITLE "Surabaya-Jonny"
PERFORMER "Anne Sofie von Otter"
ISRC DEF059303960
INDEX 00 70:11:04
INDEX 01 70:11:45
Наслаждайтесь!!



Показать сообщения:    

Текущее время: 04-Дек 19:16

Часовой пояс: UTC + 3


Вы не можете начинать темы
Вы не можете отвечать на сообщения
Вы не можете редактировать свои сообщения
Вы не можете удалять свои сообщения
Вы не можете голосовать в опросах
Вы не можете прикреплять файлы к сообщениям
Вы не можете скачивать файлы