(Classical, 20th century) Morton Feldman - String Quartet - Ives Ensemble - 2007, FLAC (image+.cue) lossless


 

[Цитировать]

Morton Feldman - String Quartet - Ives Ensemble
Жанр: Classical, 20th century
Год издания диска: 2007
Издатель (лейбл): hat[now]ART
Дата записи: 2005
Аудиокодек: FLAC
Тип рипа: image+.cue
Битрейт аудио: lossless
Продолжительность: 76:57
Источник: собственный рип
Наличие сканов в содержимом раздачи: да
Треклист:
Morton Feldman (1926-1987)
[1]-[3] String Quartet (1979)
Исполнители:
Josje ter Haar violin
Janneke van Prooijen violin
Ruben Sanderse viola
Job ter Haar cello
of the
Ives Ensemble

Лог создания рипа

Exact Audio Copy V1.0 beta 3 from 29. August 2011
EAC extraction logfile from 20. July 2014, 10:05
Ives Ensemble / Feldman - String Quartet
Used drive : HL-DT-STDVDRAM GU70N Adapter: 0 ID: 0
Read mode : Secure
Utilize accurate stream : Yes
Defeat audio cache : Yes
Make use of C2 pointers : No
Read offset correction : 48
Overread into Lead-In and Lead-Out : No
Fill up missing offset samples with silence : Yes
Delete leading and trailing silent blocks : No
Null samples used in CRC calculations : Yes
Used interface : Native Win32 interface for Win NT & 2000
Used output format : User Defined Encoder
Selected bitrate : 128 kBit/s
Quality : High
Add ID3 tag : No
Command line compressor : C:\Program Files (x86)\Exact Audio Copy\Flac\flac.exe
Additional command line options : -V -8 -T "Date=%year%" -T "Genre=%genre%" %source%
TOC of the extracted CD
Track | Start | Length | Start sector | End sector
---------------------------------------------------------
1 | 0:00.00 | 22:35.38 | 0 | 101662
2 | 22:35.38 | 30:44.62 | 101663 | 240024
3 | 53:20.25 | 23:35.49 | 240025 | 346198
Range status and errors
Selected range
Filename C:\temp\Feldman - String Quartet\Feldman - String Quartet.wav
Peak level 97.2 %
Extraction speed 2.3 X
Range quality 100.0 %
Test CRC E4175826
Copy CRC E4175826
Copy OK
No errors occurred
AccurateRip summary
Track 1 accurately ripped (confidence 2) [F67BA06B] (AR v1)
Track 2 accurately ripped (confidence 2) [E1EB60BE] (AR v1)
Track 3 accurately ripped (confidence 2) [98FECBFA] (AR v1)
All tracks accurately ripped
End of status report
==== Log checksum 417571FD2B68543E0E86B805C71E42E0B8F1AEE5B1FB1D7FCEEA0C5EBCC177DF ====



Показать сообщения:    

Текущее время: 05-Дек 03:30

Часовой пояс: UTC + 3


Вы не можете начинать темы
Вы не можете отвечать на сообщения
Вы не можете редактировать свои сообщения
Вы не можете удалять свои сообщения
Вы не можете голосовать в опросах
Вы не можете прикреплять файлы к сообщениям
Вы не можете скачивать файлы