(Chamber music, Quartet) Gabriel Faure - Piano Quartets No.1 & 2 (Domus Ensemble) - 1986, FLAC (image+.cue) lossless


 

[Цитировать]

Gabriel Fauré - Piano Quartets No.1 & 2Domus Ensemble Жанр: Chamber music, Quartet
Страна-производитель диска: UK
Год издания диска: 1986
Издатель (лейбл): Hyperion
Номер по каталогу: CDA 66166
Дата записи: 1985
Аудиокодек: FLAC
Тип рипа: image+.cue
Битрейт аудио: lossless
Продолжительность: 1:02:11
Источник: скачано с odeonmusic
Наличие сканов в содержимом раздачи: да
Треклист:
Piano Quartet No. 1 in C minor, Op. 15
1 Allegro molto moderato 9:19
2 Scherzo (Allegro vivo) 5:11
3 Adagio 7:10
4 Allegro molto 7:56
Piano Quartet No. 2 in G minor, Op. 45
5 Allegro molto moderato 10:50
6 Allegro molto 3:24
7 Adagio non troppo 10:21
8 Allegro molto 7:57
Исполнители:
Domus Ensemble:
Piano – Susan Tomes
Violin – Krysia Osostowicz
Viola – Robin Ireland
Cello – Timothy Hugh-

Лог создания рипа

Exact Audio Copy V1.0 beta 3 from 29. August 2011
EAC extraction logfile from 21. June 2013, 10:13
Domus / Fauré - Piano Quartets - Domus
Used drive : TSSTcorpCDDVDW SH-222BB Adapter: 2 ID: 1
Read mode : Secure
Utilize accurate stream : Yes
Defeat audio cache : Yes
Make use of C2 pointers : No
Read offset correction : 6
Overread into Lead-In and Lead-Out : No
Fill up missing offset samples with silence : Yes
Delete leading and trailing silent blocks : No
Null samples used in CRC calculations : Yes
Used interface : Native Win32 interface for Win NT & 2000
Used output format : User Defined Encoder
Selected bitrate : 1024 kBit/s
Quality : High
Add ID3 tag : No
Command line compressor : C:\Program Files\Exact Audio Copy\Flac\flac.exe
Additional command line options : -8 -V -T "TITLE=%title%" -T "ARTIST=%artist%" -T "ALBUMARTIST=%albumartist%" -T "ALBUM=%albumtitle%" -T "DATE=%year%" -T "TRACKNUMBER=%tracknr%" -T "TRACKTOTAL=%numtracks%" -T "GENRE=%genre%" -T "COMMENT=%comment%" -T "PERFORMER=%albuminterpret%" -T "COMPOSER=%composer%" %source% -o %dest%
TOC of the extracted CD
Track | Start | Length | Start sector | End sector
---------------------------------------------------------
1 | 0:00.00 | 9:20.00 | 0 | 41999
2 | 9:20.00 | 5:11.55 | 42000 | 65379
3 | 14:31.55 | 7:09.70 | 65380 | 97624
4 | 21:41.50 | 7:54.62 | 97625 | 133236
5 | 29:36.37 | 10:52.38 | 133237 | 182174
6 | 40:29.00 | 3:24.37 | 182175 | 197511
7 | 43:53.37 | 10:22.00 | 197512 | 244161
8 | 54:15.37 | 7:55.55 | 244162 | 279841
Range status and errors
Selected range
Filename G:\Ripped general\[2190] Fauré – Piano Quartets – Domus\Fauré - Piano Quartets - Domus.wav
Peak level 78.3 %
Extraction speed 7.7 X
Range quality 100.0 %
Test CRC C5A8BB57
Copy CRC C5A8BB57
Copy OK
No errors occurred
AccurateRip summary
Track 1 accurately ripped (confidence 2) [040CF91D] (AR v2)
Track 2 accurately ripped (confidence 2) [9F7E0F06] (AR v2)
Track 3 accurately ripped (confidence 2) [00583003] (AR v2)
Track 4 accurately ripped (confidence 2) [0C9570AA] (AR v2)
Track 5 accurately ripped (confidence 2) [0C7D0F2F] (AR v2)
Track 6 accurately ripped (confidence 2) [84913A23] (AR v2)
Track 7 accurately ripped (confidence 2) [53D8E25B] (AR v2)
Track 8 accurately ripped (confidence 2) [DA3FEB51] (AR v2)
All tracks accurately ripped
End of status report

Лог проверки качества

AUDIOCHECKER v2.0 beta (build 457) - by Dester - opdester@freemail.hu
~~~~~~~~~~~~~~~~~~~~~~~~~~~~~~~~~~
-=== DO NOT EDIT THIS FILE! ===-
Path: ...\Faure - Piano Quartets (Domus)
1 -=- Faure - Piano Quartets - Domus.flac -=- CDDA (100%)
152777572

Доп. информация

The piano quartet Domus was formed in 1979 at Sandor Vegh's International Musicians' Seminar at Prussia Cove in Cornwall. The original members were Susan Tomes, Krysia Osostowicz, Robin Ireland (viola) and Timothy Hugh (cello).
Domus first made its reputation performing in its own portable concert hall, which also gave the group its name—a white geodesic dome seating two hundred. Playing in this magical and intimate setting, Domus's committed yet informal presentation won them an enthusiastic following, and they appeared at venues in remote places throughout the world, from Italian hilltops and German parks to Australian city squares. Through their open rehearsals, discussion groups and workshops, Domus's characteristic performance style evolved through its close relationship with its audiences, and greatly enhanced the accessibility and understanding of the repertoire. However, the group's ever-increasing following eventually outgrew the dome and drew them back into the conventional concert hall and to the recording studio.
Domus's first recording, of the two Fauré Piano Quartets, was made for Hyperion in 1985 and won a Gramophone Award for the best chamber music recording of the year. The disc also won a German Record Critics' Prize and was accorded the rarely bestowed 'Evénement Exceptionel' by the French journal, Télérama. That recording was followed in 1988 by the two Dvorak Piano Quartets, opp 23 and 87, which also received glowing reviews.
By this time the personnel of the group had changed. Cellist Timothy Hugh left to pursue a solo career and was replaced by Richard Lester, and Robin Ireland, who left to join a string quartet, was replaced by Timothy Boulton.
Several members of the group have also made solo recordings for Hyperion. Krysia Osostowiz and Susan Tomes recorded the Fauré and Brahms Violin Sonatas and a Bartók disc (with Michael Collins playing the clarinet in 'Contrasts'), and Richard Lester and Susan Tomes recorded all of Mendelssohn's cello music.
Domus's next few recordings (of Mozart, Brahms and Mendelssohn) were made for the then-new Virgin Classics label, now absorbed into EMI. By 1994, having recorded virtually all of the main Romantic piano quartet repertoire, and each member having established notable solo careers, Domus decided to disband. Before they did so Hyperion asked them to make one last recording. To complement their now famous recording of the Fauré Piano Quartets they brought in Anthony Marwood as second violin to record the two Piano Quintets by the same composer. The recording was issued early in 1995 and that too was the recipient of a Gramophone Award as the best chamber music disc of the year.
http://www.hyperion-records.co.uk



Показать сообщения:    

Текущее время: 03-Дек 22:46

Часовой пояс: UTC + 3


Вы не можете начинать темы
Вы не можете отвечать на сообщения
Вы не можете редактировать свои сообщения
Вы не можете удалять свои сообщения
Вы не можете голосовать в опросах
Вы не можете прикреплять файлы к сообщениям
Вы не можете скачивать файлы