(Classical) Аренский, Чайковский, Римский-Корсаков – Скрипичные концерты / Arensky, Tchaikovsky, Rimsky-Korsakov – Russian Violin Concertos (Лубоцкий / Lubotsky, Volmer) - 1998, FLAC (image+.cue) lossless


Статистика раздачи [Обновить пиров]
Размер:  319 MB   |    Зарегистрирован:  8 месяцев 20 дней   |    Скачан:  0 раз

Полного источника не было: Никогда

Личеров:  3  [  0 KB/s  ]   Подробная статистика пиров
 
   
 
 
 

[Цитировать]

Аренский, Чайковский, Римский-Корсаков – Скрипичные концерты / Arensky, Tchaikovsky, Rimsky-Korsakov – Russian Violin Concertos (Лубоцкий / Lubotsky, Volmer)
Жанр: Classical
Страна-производитель диска: Германия
Год издания диска: 1998
Издатель (лейбл): GLOBE
Номер по каталогу: GLO 5174
Дата записи: не указана
Аудиокодек: FLAC
Тип рипа: image+.cue
Битрейт аудио: lossless
Продолжительность: 01:12:32
Источник: odeonmusic
Наличие сканов в содержимом раздачи: да
Треклист:
Антон (Антоний) Степанович Аренский (1861 — 1906).
Скрипичный концерт a-moll, op. 54 (1891).
01. Allegro. — [05:34].
02. — Adagio non troppo. — Allegro. — Cadenza. — [04:25].
03. — Tempo di valse. — [10:50].
(04.) — Poco meno mosso. — Tempo I. — Cadenza. — Tempo I. — Poco più mosso.
Николай Андреевич Римский-Корсаков (1844 — 1908).
Концертная фантазия h-moll на русские темы для скрипки с оркестром, op. 33 (1886 — 1887).
04. Allegro moderato. — [05:26].
05. — Thème Russe. Lento. — [03:17].
06. — Allegro animato. — Thème Russe. Allegretto grazioso. — [Variazione.] Vivace. — [Variazione.] Allegretto tranquillo. — [Variazione.] Allegro scherzando. — [Variazione.] Allegro vivo. — Cadenza. — [Coda.] Andante tranquillo. — Allegro [06:05].
Петр Ильич Чайковский (1840 — 1893).
Скрипичный концерт D-dur, op. 35 (1878).
07. I. Allegro moderato. — Moderato assai [19:39].
08. II. Canzonetta. Andante [06:31].
09. III. Finale. Allegro vivacissimo [10:14].
Исполнители:
Марк Лубоцкий (скрипка).
Estonian National Symphony Orchestra.
Дирижер Arvo Volmer.

Лог создания рипа

Exact Audio Copy V1.0 beta 3 from 29. August 2011
EAC extraction logfile from 17. June 2014, 14:45
Mark Lubotsky / Arensky, Rimsky-Korsakov, Tchaikovsky - Violin Concertos - Mark Lubotsky
Used drive : TSSTcorpCDDVDW SH-222BB Adapter: 2 ID: 1
Read mode : Secure
Utilize accurate stream : Yes
Defeat audio cache : Yes
Make use of C2 pointers : No
Read offset correction : 6
Overread into Lead-In and Lead-Out : No
Fill up missing offset samples with silence : Yes
Delete leading and trailing silent blocks : No
Null samples used in CRC calculations : Yes
Used interface : Native Win32 interface for Win NT & 2000
Used output format : User Defined Encoder
Selected bitrate : 896 kBit/s
Quality : High
Add ID3 tag : No
Command line compressor : C:\Program Files\Exact Audio Copy\FLAC\FLAC.EXE
Additional command line options : -8 -V -T "TITLE=%title%" -T "ARTIST=%artist%" -T "ALBUMARTIST=%albumartist%" -T "ALBUM=%albumtitle%" -T "DATE=%year%" -T "TRACKNUMBER=%tracknr%" -T "TRACKTOTAL=%numtracks%" -T "GENRE=%genre%" -T "COMMENT=%comment%" -T "PERFORMER=%albuminterpret%" -T "COMPOSER=%composer%" %source% -o %dest%
TOC of the extracted CD
Track | Start | Length | Start sector | End sector
---------------------------------------------------------
1 | 0:00.00 | 5:34.05 | 0 | 25054
2 | 5:34.05 | 4:25.27 | 25055 | 44956
3 | 9:59.32 | 11:01.60 | 44957 | 94591
4 | 21:01.17 | 5:26.35 | 94592 | 119076
5 | 26:27.52 | 3:16.68 | 119077 | 133844
6 | 29:44.45 | 6:16.67 | 133845 | 162111
7 | 36:01.37 | 19:43.53 | 162112 | 250889
8 | 55:45.15 | 6:31.45 | 250890 | 280259
9 | 62:16.60 | 10:14.09 | 280260 | 326318
Range status and errors
Selected range
Filename E:\4000\[4388] Arensky, Rimsky-Korsakov, Tchaikovsky – Violin Concertos – Mark Lubotsky\Arensky, Rimsky-Korsakov, Tchaikovsky - Violin Concertos - Mark Lubotsky.wav
Peak level 99.6 %
Extraction speed 7.1 X
Range quality 100.0 %
Test CRC 30396FED
Copy CRC 30396FED
Copy OK
No errors occurred
AccurateRip summary
Track 1 not present in database
Track 2 not present in database
Track 3 not present in database
Track 4 not present in database
Track 5 not present in database
Track 6 not present in database
Track 7 not present in database
Track 8 not present in database
Track 9 not present in database
None of the tracks are present in the AccurateRip database
End of status report
==== Log checksum 0D0444328299E4B0DEE5E0EC54B6A2B5B5B44E9B5C535A0457FECA5B5F571614 ====

Содержание индексной карты (.CUE)

REM DISCID 8010FE09
REM COMMENT "ExactAudioCopy v1.0b3"
CATALOG 0000000000000
PERFORMER "Mark Lubotsky"
TITLE "Arensky, Rimsky-Korsakov, Tchaikovsky – Violin Concertos – Mark Lubotsky"
FILE "Arensky, Rimsky-Korsakov, Tchaikovsky – Violin Concertos – Mark Lubotsky.flac" WAVE
TRACK 01 AUDIO
TITLE "Arensky - Violin Concerto in A minor, Op. 54 - Allegro -"
PERFORMER "Mark Lubotsky"
INDEX 01 00:00:00
TRACK 02 AUDIO
TITLE "Arensky - Violin Concerto in A minor, Op. 54 - Adagio non troppo -"
PERFORMER "Mark Lubotsky"
INDEX 01 05:34:05
TRACK 03 AUDIO
TITLE "Arensky - Violin Concerto in A minor, Op. 54 - Tempo di valse - Tempo I"
PERFORMER "Mark Lubotsky"
INDEX 01 09:59:32
TRACK 04 AUDIO
TITLE "Rimsky-Korsakov - Concert Phantasy on Russian Themes in B minor, Op. 33 - Allegro moderato -"
PERFORMER "Mark Lubotsky"
INDEX 00 20:49:57
INDEX 01 21:01:17
TRACK 05 AUDIO
TITLE "Rimsky-Korsakov - Concert Phantasy on Russian Themes in B minor, Op. 33 - Theme Russe. Lento -"
PERFORMER "Mark Lubotsky"
INDEX 01 26:27:52
TRACK 06 AUDIO
TITLE "Rimsky-Korsakov - Concert Phantasy on Russian Themes in B minor, Op. 33 - Allegro animato - Theme Russe. Allegretto grazioso"
PERFORMER "Mark Lubotsky"
INDEX 01 29:44:45
TRACK 07 AUDIO
TITLE "Tchaikovsky - Violin Concerto in D major, Op. 35 - I. Allegro moderato"
PERFORMER "Mark Lubotsky"
INDEX 00 35:50:06
INDEX 01 36:01:37
TRACK 08 AUDIO
TITLE "Tchaikovsky - Violin Concerto in D major, Op. 35 - II. Canzonetta. Andante"
PERFORMER "Mark Lubotsky"
INDEX 00 55:40:59
INDEX 01 55:45:15
TRACK 09 AUDIO
TITLE "Tchaikovsky - Violin Concerto in D major, Op. 35 - III. Finale. Allegro vivacissimo"
PERFORMER "Mark Lubotsky"
INDEX 01 62:16:60

Вариант индексной карты (.CUE) с разделением концерта Аренского на четыре трека

REM DISCID 8010FE09
REM COMMENT "ExactAudioCopy v1.0b3"
CATALOG 0000000000000
PERFORMER "Mark Lubotsky"
TITLE "Arensky, Rimsky-Korsakov, Tchaikovsky – Violin Concertos – Mark Lubotsky"
FILE "Arensky, Rimsky-Korsakov, Tchaikovsky – Violin Concertos – Mark Lubotsky.flac" WAVE
TRACK 01 AUDIO
TITLE "Arensky - Violin Concerto in A minor, Op. 54 - Allegro -"
PERFORMER "Mark Lubotsky"
INDEX 01 00:00:00
TRACK 02 AUDIO
TITLE "Arensky - Violin Concerto in A minor, Op. 54 - Adagio non troppo -"
PERFORMER "Mark Lubotsky"
INDEX 01 05:34:20
TRACK 03 AUDIO
TITLE "Arensky - Violin Concerto in A minor, Op. 54 - Tempo di valse -"
PERFORMER "Mark Lubotsky"
INDEX 01 09:59:32
TRACK 04 AUDIO
TITLE "Arensky - Violin Concerto in A minor, Op. 54 - Tempo I"
PERFORMER "Mark Lubotsky"
INDEX 01 14:53:18
TRACK 05 AUDIO
TITLE "Rimsky-Korsakov - Concert Phantasy on Russian Themes in B minor, Op. 33 - Allegro moderato -"
PERFORMER "Mark Lubotsky"
INDEX 00 20:49:57
INDEX 01 21:01:17
TRACK 06 AUDIO
TITLE "Rimsky-Korsakov - Concert Phantasy on Russian Themes in B minor, Op. 33 - Theme Russe. Lento -"
PERFORMER "Mark Lubotsky"
INDEX 01 26:32:34
TRACK 07 AUDIO
TITLE "Rimsky-Korsakov - Concert Phantasy on Russian Themes in B minor, Op. 33 - Allegro animato - Theme Russe. Allegretto grazioso"
PERFORMER "Mark Lubotsky"
INDEX 01 29:44:45
TRACK 08 AUDIO
TITLE "Tchaikovsky - Violin Concerto in D major, Op. 35 - I. Allegro moderato"
PERFORMER "Mark Lubotsky"
INDEX 00 35:50:06
INDEX 01 36:01:37
TRACK 09 AUDIO
TITLE "Tchaikovsky - Violin Concerto in D major, Op. 35 - II. Canzonetta. Andante"
PERFORMER "Mark Lubotsky"
INDEX 00 55:40:59
INDEX 01 55:44:42
TRACK 10 AUDIO
TITLE "Tchaikovsky - Violin Concerto in D major, Op. 35 - III. Finale. Allegro vivacissimo"
PERFORMER "Mark Lubotsky"
INDEX 01 62:17:02
[teatrix.ru].t18996.torrent 
Торрент: Зарегистрирован [ 2016-03-18 12:32 ] · 6ECD0C044B3B79FE9EF482D8AA6D6D722ABAD02E

Скачать .torrent

Скачать

14 KB

Статус: проверено
Скачан: 0 раз
Размер: 319 MB
terms.php



Быстрый ответ

Имя:

      
Для отправки сообщений необходимо включить JavaScript
Показать сообщения:    

Текущее время: 08-Дек 10:59

Часовой пояс: UTC + 3


Вы можете начинать темы
Вы можете отвечать на сообщения
Вы не можете редактировать свои сообщения
Вы не можете удалять свои сообщения
Вы не можете голосовать в опросах
Вы не можете прикреплять файлы к сообщениям
Вы можете скачивать файлы