(Classical) Nicolo Paganini - Violin Concertos Nos. 1 & 2 - Kristof Barati, NDR Radiophilharmonie Hannover, Eiji Oue - 2013, FLAC (image+.cue) lossless


Статистика раздачи [Обновить пиров]
Размер:  291 MB   |    Зарегистрирован:  8 месяцев 22 дня   |    Скачан:  0 раз

Полного источника не было: Никогда

Личеров:  2  [  0 KB/s  ]   Подробная статистика пиров
 
   
 
 
 

[Цитировать]

Nicolò Paganini - Violin Concertos Nos. 1 & 2 - Kristóf Baráti, NDR Radiophilharmonie Hannover, Eiji Oue
Жанр: Classical
Год издания диска: 2013
Издатель (лейбл): Brilliant Classics
Номер по каталогу: 94803
Дата записи: 2008
Аудиокодек: FLAC
Тип рипа: image+.cue
Битрейт аудио: lossless
Продолжительность: 65:40
Источник: собственный рип
Наличие сканов в содержимом раздачи: да
Треклист:
Nicolò Paganini (1782-1840)
[1]-[3] Violin Concerto No.1 in D major, Op.6
[4]-[6] Violin Concerto No.2 in B minor, Op.7
Исполнители:
Kristóf Baráti violin
NDR Radiophilharmonie Hannover
Eiji Oue

Лог создания рипа

Exact Audio Copy V1.0 beta 3 from 29. August 2011
EAC extraction logfile from 4. July 2014, 18:02
Kristóf Baráti, NDR Radiophilharmonie Hannover, Eiji Oue / Paganini - Violin Concertos 1 & 2
Used drive : HL-DT-STDVDRRW GWA-4164B Adapter: 5 ID: 0
Read mode : Secure
Utilize accurate stream : Yes
Defeat audio cache : Yes
Make use of C2 pointers : No
Read offset correction : 102
Overread into Lead-In and Lead-Out : No
Fill up missing offset samples with silence : Yes
Delete leading and trailing silent blocks : No
Null samples used in CRC calculations : Yes
Used interface : Native Win32 interface for Win NT & 2000
Used output format : User Defined Encoder
Selected bitrate : 896 kBit/s
Quality : High
Add ID3 tag : No
Command line compressor : C:\Program Files\Exact Audio Copy\FLAC\FLAC.EXE
Additional command line options : -V -8 %source%
TOC of the extracted CD
Track | Start | Length | Start sector | End sector
---------------------------------------------------------
1 | 0:00.00 | 20:23.30 | 0 | 91754
2 | 20:23.30 | 4:57.30 | 91755 | 114059
3 | 25:20.60 | 9:59.57 | 114060 | 159041
4 | 35:20.42 | 14:28.13 | 159042 | 224154
5 | 49:48.55 | 6:20.18 | 224155 | 252672
6 | 56:08.73 | 9:29.06 | 252673 | 295353
Range status and errors
Selected range
Filename D:\temp\Music\Paganini - Violin Concertos 1 & 2 - Barati\Paganini - Violin Concertos 1 & 2.wav
Peak level 96.8 %
Extraction speed 2.9 X
Range quality 100.0 %
Test CRC CBE26608
Copy CRC CBE26608
Copy OK
No errors occurred
AccurateRip summary
Track 1 accurately ripped (confidence 2) [7A994B51] (AR v2)
Track 2 accurately ripped (confidence 2) [FAE464EA] (AR v2)
Track 3 accurately ripped (confidence 2) [B25FBD36] (AR v2)
Track 4 accurately ripped (confidence 2) [662091D2] (AR v2)
Track 5 accurately ripped (confidence 2) [DC0E609A] (AR v2)
Track 6 accurately ripped (confidence 2) [15E55480] (AR v2)
All tracks accurately ripped
End of status report
==== Log checksum 6D75A003F2EF241DC2FC312FF902792080D0AC6F3746B97451F43A2903082B25 ====
[teatrix.ru].t18998.torrent 
Торрент: Зарегистрирован [ 2016-03-18 12:32 ] · 739A524F8F659D4BD95722A995176306BED4CF00

Скачать .torrent

Скачать

24 KB

Статус: проверено
Скачан: 0 раз
Размер: 291 MB
terms.php



Быстрый ответ

Имя:

      
Для отправки сообщений необходимо включить JavaScript
Показать сообщения:    

Текущее время: 10-Дек 00:17

Часовой пояс: UTC + 3


Вы можете начинать темы
Вы можете отвечать на сообщения
Вы не можете редактировать свои сообщения
Вы не можете удалять свои сообщения
Вы не можете голосовать в опросах
Вы не можете прикреплять файлы к сообщениям
Вы можете скачивать файлы