(Classical) Heinrich Ignaz Franz von Biber - Rosenkrantz Sonaten - Sirkka-Liisa Kaakinen-Pilch, Battalia - 2CD - 2014, FLAC (image+.cue) lossless


 

[Цитировать]

Heinrich Ignaz Franz von Biber - Rosenkrantz Sonaten - Sirkka-Liisa Kaakinen-Pilch, Battalia
Жанр: Classical
Страна-производитель диска: Finland
Год издания диска: 2014
Издатель (лейбл): Ondine
Номер по каталогу: ODE 1243-2D
Дата записи: 2013
Аудиокодек: FLAC
Тип рипа: image+.cue
Битрейт аудио: lossless
Продолжительность: 124:56
Источник: собственный рип
Наличие сканов в содержимом раздачи: да
Треклист:
Heinrich Ignaz Franz von Biber (1644–1704)
Sonaten über die Mysterien des Rosenkranzes
(Mystery Sonatas), circa 1676

CD1

[1]-[2] Sonata I in D minor
[3]-[4] Sonata II in A major
[5]-[7] Sonata III in B minor
[8] Sonata IV in D minor
[9]-[12] Sonata V in A major
[13]-[15] Sonata VI in C minor
[16]-[17] Sonata VII in F major
[18]-[19] Sonata VIII in B major
[20]-[22] Sonata IX in A minor
[23]-[24] Sonata X in G minor

CD2

[1]-[3] Sonata XI in G major
[4]-[7] Sonata XII in C major
[8]-[11] Sonata XIII in D minor
[12]-[13] Sonata XIV in D major
[14]-[17] Sonata XV in C major
[18] Sonata XVI in G minor
Исполнители:
Sirkka-Liisa Kaakinen-Pilch violin
Battalia:
Annamari Pölhö keyboards
Eero Palviainen lutes, guitar, organ
Mika Suihkonen violone

Лог создания рипа: CD1

Exact Audio Copy V1.0 beta 3 from 29. August 2011
EAC extraction logfile from 8. July 2014, 2:13
Sirkka-Liisa Kaakinen-Pilch, Battalia / Biber - Rosenkranz-Sonaten - CD1
Used drive : HL-DT-STDVDRAM GU70N Adapter: 0 ID: 0
Read mode : Secure
Utilize accurate stream : Yes
Defeat audio cache : Yes
Make use of C2 pointers : No
Read offset correction : 48
Overread into Lead-In and Lead-Out : No
Fill up missing offset samples with silence : Yes
Delete leading and trailing silent blocks : No
Null samples used in CRC calculations : Yes
Used interface : Native Win32 interface for Win NT & 2000
Used output format : User Defined Encoder
Selected bitrate : 128 kBit/s
Quality : High
Add ID3 tag : No
Command line compressor : C:\Program Files (x86)\Exact Audio Copy\Flac\flac.exe
Additional command line options : -V -8 -T "Date=%year%" -T "Genre=%genre%" %source%
TOC of the extracted CD
Track | Start | Length | Start sector | End sector
---------------------------------------------------------
1 | 0:00.00 | 2:28.62 | 0 | 11161
2 | 2:28.62 | 3:27.52 | 11162 | 26738
3 | 5:56.39 | 1:34.00 | 26739 | 33788
4 | 7:30.39 | 3:22.15 | 33789 | 48953
5 | 10:52.54 | 1:42.65 | 48954 | 56668
6 | 12:35.44 | 2:54.34 | 56669 | 69752
7 | 15:30.03 | 1:56.71 | 69753 | 78523
8 | 17:26.74 | 7:54.47 | 78524 | 114120
9 | 25:21.46 | 0:53.02 | 114121 | 118097
10 | 26:14.48 | 1:35.48 | 118098 | 125270
11 | 27:50.21 | 1:11.10 | 125271 | 130605
12 | 29:01.31 | 3:59.41 | 130606 | 148571
13 | 33:00.72 | 3:24.12 | 148572 | 163883
14 | 36:25.09 | 2:42.08 | 163884 | 176041
15 | 39:07.17 | 1:56.38 | 176042 | 184779
16 | 41:03.55 | 3:55.12 | 184780 | 202416
17 | 44:58.67 | 5:19.38 | 202417 | 226379
18 | 50:18.30 | 1:58.53 | 226380 | 235282
19 | 52:17.08 | 3:42.15 | 235283 | 251947
20 | 55:59.23 | 2:35.42 | 251948 | 263614
21 | 58:34.65 | 3:07.44 | 263615 | 277683
22 | 61:42.34 | 1:13.16 | 277684 | 283174
23 | 62:55.50 | 0:58.44 | 283175 | 287568
24 | 63:54.19 | 7:29.41 | 287569 | 321284
Range status and errors
Selected range
Filename C:\temp\Biber - Rozenkranz-Sonaten - Kaakinen-Pilch, Battalia\Biber - Rosenkranz-Sonaten - CD1.wav
Peak level 97.7 %
Extraction speed 2.2 X
Range quality 99.9 %
Test CRC 04A4EB2B
Copy CRC 04A4EB2B
Copy OK
No errors occurred
AccurateRip summary
Track 1 accurately ripped (confidence 1) [6BF2CC32] (AR v2)
Track 2 accurately ripped (confidence 1) [E5068DE4] (AR v2)
Track 3 accurately ripped (confidence 1) [16AE394C] (AR v2)
Track 4 accurately ripped (confidence 1) [83FA91DE] (AR v2)
Track 5 accurately ripped (confidence 1) [CA48536A] (AR v2)
Track 6 accurately ripped (confidence 1) [3D9E0347] (AR v2)
Track 7 accurately ripped (confidence 1) [C8D8F7B1] (AR v2)
Track 8 accurately ripped (confidence 1) [44F2DEF2] (AR v2)
Track 9 accurately ripped (confidence 1) [B5F5B05E] (AR v2)
Track 10 accurately ripped (confidence 1) [56E0BEA0] (AR v2)
Track 11 accurately ripped (confidence 1) [F5552B55] (AR v2)
Track 12 accurately ripped (confidence 1) [24317478] (AR v2)
Track 13 accurately ripped (confidence 1) [94E08CE3] (AR v2)
Track 14 accurately ripped (confidence 1) [E3864728] (AR v2)
Track 15 accurately ripped (confidence 1) [A77E2043] (AR v2)
Track 16 accurately ripped (confidence 1) [BEE99244] (AR v2)
Track 17 accurately ripped (confidence 1) [7F4EC58C] (AR v2)
Track 18 accurately ripped (confidence 1) [DDA4387F] (AR v2)
Track 19 accurately ripped (confidence 1) [7E0E4032] (AR v2)
Track 20 accurately ripped (confidence 1) [957B4F7C] (AR v2)
Track 21 accurately ripped (confidence 1) [C8DF5CA3] (AR v2)
Track 22 accurately ripped (confidence 1) [51B4952C] (AR v2)
Track 23 accurately ripped (confidence 1) [BF6E9F41] (AR v2)
Track 24 accurately ripped (confidence 1) [2D715740] (AR v2)
All tracks accurately ripped
End of status report
==== Log checksum 7E01D99D83D995A7654FA70B1C0A9F1B0C5B927A2249AB71E00FBE210B9D2B8D ====

Лог создания рипа: CD2

Exact Audio Copy V1.0 beta 3 from 29. August 2011
EAC extraction logfile from 8. July 2014, 18:35
Sirkka-Liisa Kaakinen-Pilch, Battalia / Biber - Rosenkranz-Sonaten - CD2
Used drive : HL-DT-STDVDRAM GU70N Adapter: 0 ID: 0
Read mode : Secure
Utilize accurate stream : Yes
Defeat audio cache : Yes
Make use of C2 pointers : No
Read offset correction : 48
Overread into Lead-In and Lead-Out : No
Fill up missing offset samples with silence : Yes
Delete leading and trailing silent blocks : No
Null samples used in CRC calculations : Yes
Used interface : Native Win32 interface for Win NT & 2000
Used output format : User Defined Encoder
Selected bitrate : 128 kBit/s
Quality : High
Add ID3 tag : No
Command line compressor : C:\Program Files (x86)\Exact Audio Copy\Flac\flac.exe
Additional command line options : -V -8 -T "Date=%year%" -T "Genre=%genre%" %source%
TOC of the extracted CD
Track | Start | Length | Start sector | End sector
---------------------------------------------------------
1 | 0:00.00 | 2:16.01 | 0 | 10200
2 | 2:16.01 | 3:30.71 | 10201 | 26021
3 | 5:46.72 | 1:26.43 | 26022 | 32514
4 | 7:13.40 | 0:46.66 | 32515 | 36030
5 | 8:00.31 | 1:24.61 | 36031 | 42391
6 | 9:25.17 | 2:25.44 | 42392 | 53310
7 | 11:50.61 | 2:57.25 | 53311 | 66610
8 | 14:48.11 | 2:42.04 | 66611 | 78764
9 | 17:30.15 | 1:07.49 | 78765 | 83838
10 | 18:37.64 | 1:33.11 | 83839 | 90824
11 | 20:11.00 | 1:38.36 | 90825 | 98210
12 | 21:49.36 | 2:17.45 | 98211 | 108530
13 | 24:07.06 | 6:25.59 | 108531 | 137464
14 | 30:32.65 | 1:54.12 | 137465 | 146026
15 | 32:27.02 | 5:37.47 | 146027 | 171348
16 | 38:04.49 | 2:46.42 | 171349 | 183840
17 | 40:51.16 | 3:09.27 | 183841 | 198042
18 | 44:00.43 | 9:28.34 | 198043 | 240676
Range status and errors
Selected range
Filename C:\temp\Biber - Rozenkranz-Sonaten - Kaakinen-Pilch, Battalia\Biber - Rosenkranz-Sonaten - CD2.wav
Peak level 97.9 %
Extraction speed 5.0 X
Range quality 100.0 %
Test CRC 44AC08D0
Copy CRC 44AC08D0
Copy OK
No errors occurred
AccurateRip summary
Track 1 accurately ripped (confidence 1) [006B9FDD] (AR v2)
Track 2 accurately ripped (confidence 1) [6EE7A7C3] (AR v2)
Track 3 accurately ripped (confidence 1) [356F94B8] (AR v2)
Track 4 accurately ripped (confidence 1) [DDAF47EB] (AR v2)
Track 5 accurately ripped (confidence 1) [7BF0C707] (AR v2)
Track 6 accurately ripped (confidence 1) [1DB8DA0E] (AR v2)
Track 7 accurately ripped (confidence 1) [C26B4414] (AR v2)
Track 8 accurately ripped (confidence 1) [04B39BD0] (AR v2)
Track 9 accurately ripped (confidence 1) [F051348A] (AR v2)
Track 10 accurately ripped (confidence 1) [EAA272C1] (AR v2)
Track 11 accurately ripped (confidence 1) [580B825A] (AR v2)
Track 12 accurately ripped (confidence 1) [CF4F2D8A] (AR v2)
Track 13 accurately ripped (confidence 1) [73F4C029] (AR v2)
Track 14 accurately ripped (confidence 1) [0A286356] (AR v2)
Track 15 accurately ripped (confidence 1) [EECE8E4F] (AR v2)
Track 16 accurately ripped (confidence 1) [6111006C] (AR v2)
Track 17 accurately ripped (confidence 1) [EC37FA14] (AR v2)
Track 18 accurately ripped (confidence 1) [1D9E4A17] (AR v2)
All tracks accurately ripped
End of status report
==== Log checksum 7045C51975AED8C5137580D932D4751A37A151F167C47BC1100514D75165F4C1 ====



Показать сообщения:    

Текущее время: 04-Дек 02:50

Часовой пояс: UTC + 3


Вы не можете начинать темы
Вы не можете отвечать на сообщения
Вы не можете редактировать свои сообщения
Вы не можете удалять свои сообщения
Вы не можете голосовать в опросах
Вы не можете прикреплять файлы к сообщениям
Вы не можете скачивать файлы