(Classical) Моисей Вайнберг (Mieczyslaw Weinberg) - Симфония №10; Концертино; Струнное трио; Соната для скрипки соло - Гидон Кремер (Gidon Kremer), Даниил Гришин, Даниил Трифонов, Kremerata Baltica - 2014, FLAC (image+.cue) lossless


 

[Цитировать]

Моисей Вайнберг (Mieczysław Weinberg) - Симфония №10; Концертино; Струнное трио; Соната для скрипки соло - Гидон Кремер (Gidon Kremer), Даниил Гришин, Даниил Трифонов, Kremerata Baltica
Жанр: Classical
Год издания диска: 2014
Издатель (лейбл): ECM
Номер по каталогу: ECM 2368/69
Дата записи: 2012, 2013
Аудиокодек: FLAC
Тип рипа: image+.cue
Битрейт аудио: lossless
Продолжительность: 100:57
Источник: собственный рип
Наличие сканов в содержимом раздачи: да
Треклист:
Моисей Вайнберг (1919-1996)
CD1
[1] Соната № 3 для скрипки соло, Oр. 126 (1979)
[2]-[4] Струнное трио, Oр. 48 (1950)
[5]-[7] Сонатина для скрипки и фортепиано, Op. 46 (1949)
Gidon Kremer violin
Daniil Grishin viola
Giedre Dirvanauskaitė cello
Daniil Trifonov piano
CD2
[1]-[3] Концертино для скрипки и струнного оркестра, Op. 42
Gidon Kremer violin
Kremerata Baltica
[4]-[8] Симфония №10 ля минор, Op. 98 (1968)
Kremerata Baltica
Исполнители:
Gidon Kremer violin
Daniil Grishin viola
Giedre Dirvanauskaitė cello
Daniil Trifonov piano
Kremerata Baltica

Лог создания рипа: CD1

Exact Audio Copy V1.0 beta 3 from 29. August 2011
EAC extraction logfile from 6. July 2014, 0:43
Kremerata Baltica, Gidon Kremer / Weinberg - Orchestral and Chamber Works - CD1
Used drive : HL-DT-STDVDRAM GSA-4083N Adapter: 1 ID: 0
Read mode : Secure
Utilize accurate stream : Yes
Defeat audio cache : Yes
Make use of C2 pointers : No
Read offset correction : 667
Overread into Lead-In and Lead-Out : No
Fill up missing offset samples with silence : Yes
Delete leading and trailing silent blocks : No
Null samples used in CRC calculations : Yes
Used interface : Native Win32 interface for Win NT & 2000
Used output format : User Defined Encoder
Selected bitrate : 896 kBit/s
Quality : High
Add ID3 tag : No
Command line compressor : C:\Program Files\Exact Audio Copy\Flac\flac.exe
Additional command line options : -V -8 %source%
TOC of the extracted CD
Track | Start | Length | Start sector | End sector
---------------------------------------------------------
1 | 0:00.00 | 22:22.71 | 0 | 100720
2 | 22:22.71 | 5:57.00 | 100721 | 127495
3 | 28:19.71 | 4:23.12 | 127496 | 147232
4 | 32:43.08 | 4:38.20 | 147233 | 168102
5 | 37:21.28 | 4:11.31 | 168103 | 186958
6 | 41:32.59 | 5:18.33 | 186959 | 210841
7 | 46:51.17 | 3:49.17 | 210842 | 228033
Range status and errors
Selected range
Filename J:\New Music\Weinberg - Orchestral and Chamber Works - Kremerata Baltica, Gidon Kremer\Weinberg - Orchestral and Chamber Works - CD1.wav
Peak level 85.7 %
Extraction speed 3.3 X
Range quality 99.9 %
Test CRC 31F8FD16
Copy CRC 31F8FD16
Copy OK
No errors occurred
AccurateRip summary
Track 1 accurately ripped (confidence 4) [8C8A0CB0] (AR v2)
Track 2 accurately ripped (confidence 4) [69512E2D] (AR v2)
Track 3 accurately ripped (confidence 4) [35ABBA89] (AR v2)
Track 4 accurately ripped (confidence 4) [1455E7DF] (AR v2)
Track 5 accurately ripped (confidence 4) [3B9DEC7F] (AR v2)
Track 6 accurately ripped (confidence 4) [F41DD14A] (AR v2)
Track 7 accurately ripped (confidence 4) [AD976860] (AR v2)
All tracks accurately ripped
End of status report
==== Log checksum E683A958CD12A62FE5803FF5A51A1AF5AC816FF683E7D2E1505EF1D3791A950D ====

Лог создания рипа: CD2

Exact Audio Copy V1.0 beta 3 from 29. August 2011
EAC extraction logfile from 6. July 2014, 1:24
Kremerata Baltica, Gidon Kremer / Weinberg - Orchestral and Chamber Works - CD2
Used drive : HL-DT-STDVDRAM GSA-4083N Adapter: 1 ID: 0
Read mode : Secure
Utilize accurate stream : Yes
Defeat audio cache : Yes
Make use of C2 pointers : No
Read offset correction : 667
Overread into Lead-In and Lead-Out : No
Fill up missing offset samples with silence : Yes
Delete leading and trailing silent blocks : No
Null samples used in CRC calculations : Yes
Used interface : Native Win32 interface for Win NT & 2000
Used output format : User Defined Encoder
Selected bitrate : 896 kBit/s
Quality : High
Add ID3 tag : No
Command line compressor : C:\Program Files\Exact Audio Copy\Flac\flac.exe
Additional command line options : -V -8 %source%
TOC of the extracted CD
Track | Start | Length | Start sector | End sector
---------------------------------------------------------
1 | 0:00.00 | 5:42.04 | 0 | 25653
2 | 5:42.04 | 5:30.25 | 25654 | 50428
3 | 11:12.29 | 4:47.34 | 50429 | 71987
4 | 15:59.63 | 9:26.27 | 71988 | 114464
5 | 25:26.15 | 8:52.25 | 114465 | 154389
6 | 34:18.40 | 8:16.50 | 154390 | 191639
7 | 42:35.15 | 3:15.58 | 191640 | 206322
8 | 45:50.73 | 4:37.08 | 206323 | 227105
Range status and errors
Selected range
Filename J:\New Music\Weinberg - Orchestral and Chamber Works - Kremerata Baltica, Gidon Kremer\Weinberg - Orchestral and Chamber Works - CD2.wav
Peak level 93.7 %
Extraction speed 3.3 X
Range quality 100.0 %
Test CRC 02D73E9F
Copy CRC 02D73E9F
Copy OK
No errors occurred
AccurateRip summary
Track 1 accurately ripped (confidence 4) [DF72FD0E] (AR v2)
Track 2 accurately ripped (confidence 4) [742F29AA] (AR v2)
Track 3 accurately ripped (confidence 4) [6B7A70E0] (AR v2)
Track 4 accurately ripped (confidence 4) [6CA10102] (AR v2)
Track 5 accurately ripped (confidence 4) [77701B87] (AR v2)
Track 6 accurately ripped (confidence 4) [5A05460B] (AR v2)
Track 7 accurately ripped (confidence 4) [FE8B7F8C] (AR v2)
Track 8 accurately ripped (confidence 4) [D4905778] (AR v2)
All tracks accurately ripped
End of status report
==== Log checksum 7D75856EA99173FEC5462E6B47C9DCDD24BE6DB13452CC58AB589166A4BA1157 ====



Показать сообщения:    

Текущее время: 02-Дек 21:10

Часовой пояс: UTC + 3


Вы не можете начинать темы
Вы не можете отвечать на сообщения
Вы не можете редактировать свои сообщения
Вы не можете удалять свои сообщения
Вы не можете голосовать в опросах
Вы не можете прикреплять файлы к сообщениям
Вы не можете скачивать файлы