(Classical, Renaissance) Richafort: Requiem • Josquin, Appenzeller, Gombert, Vinders: Motets - Cinquecento - 2012, FLAC (image+.cue) lossless


Статистика раздачи [Обновить пиров]
Размер:  319 MB   |    Зарегистрирован:  8 месяцев 15 дней   |    Скачан:  0 раз

Полного источника не было: Никогда

Личеров:  6  [  0 KB/s  ]   Подробная статистика пиров
 
   
 
 
 

[Цитировать]

Richafort: Requiem • Josquin, Appenzeller, Gombert, Vinders: Motets - Cinquecento
Жанр: Classical, Renaissance
Страна-производитель диска: UK
Год издания диска: 2012
Издатель (лейбл): Hyperion
Номер по каталогу: CDA67959
Дата записи: 2010
Аудиокодек: FLAC
Тип рипа: image+.cue
Битрейт аудио: lossless
Продолжительность: 70:00
Источник: собственный рип
Наличие сканов в содержимом раздачи: да
Треклист:
Josquin Des Prez (c1450/55 - 1521)
[1] Nymphes, nappés / Circumdederunt me
[2] Faulte d'argent
Jean Richafort (c1480 - after 1547)
[3]-[9] Missa pro defunctis 'Requiem'
Josquin Des Prez
[10] Nymphes des bois / Requiem aeternam
Benedictus Appenzeller (c1480/88 - after 1558)
[11] Musae Jovis
Josquin Des Prez
[12] Miserere mei, Deus
Nicolas Gombert (c1495 - c1560)
[13] Musae Jovis
Jheronimus Vinders (fl1525 - 1526)
[14] O mors inevitabilis
Исполнители:
Cinquecento Renaissance Vokal

Лог создания рипа

Exact Audio Copy V1.0 beta 3 from 29. August 2011
EAC extraction logfile from 12. May 2014, 0:26
Cinquecento / Richafort - Requiem
Used drive : HL-DT-STDVDRAM GSA-4083N Adapter: 1 ID: 0
Read mode : Secure
Utilize accurate stream : Yes
Defeat audio cache : Yes
Make use of C2 pointers : No
Read offset correction : 667
Overread into Lead-In and Lead-Out : No
Fill up missing offset samples with silence : Yes
Delete leading and trailing silent blocks : No
Null samples used in CRC calculations : Yes
Used interface : Native Win32 interface for Win NT & 2000
Used output format : User Defined Encoder
Selected bitrate : 896 kBit/s
Quality : High
Add ID3 tag : No
Command line compressor : C:\Program Files\Exact Audio Copy\Flac\flac.exe
Additional command line options : -V -8 %source%
TOC of the extracted CD
Track | Start | Length | Start sector | End sector
---------------------------------------------------------
1 | 0:00.00 | 2:44.59 | 0 | 12358
2 | 2:44.59 | 3:08.30 | 12359 | 26488
3 | 5:53.14 | 5:52.03 | 26489 | 52891
4 | 11:45.17 | 3:41.63 | 52892 | 69529
5 | 15:27.05 | 5:22.06 | 69530 | 93685
6 | 20:49.11 | 7:29.22 | 93686 | 127382
7 | 28:18.33 | 3:17.51 | 127383 | 142208
8 | 31:36.09 | 2:48.64 | 142209 | 154872
9 | 34:24.73 | 3:03.28 | 154873 | 168625
10 | 37:28.26 | 3:45.19 | 168626 | 185519
11 | 41:13.45 | 5:46.69 | 185520 | 211538
12 | 47:00.39 | 15:01.44 | 211539 | 279157
13 | 62:02.08 | 5:17.46 | 279158 | 302978
14 | 67:19.54 | 2:40.22 | 302979 | 315000
Range status and errors
Selected range
Filename J:\New Music\CDA67959 - Richafort - Requiem\Richafort - Requiem.wav
Peak level 98.9 %
Extraction speed 2.7 X
Range quality 100.0 %
Test CRC 08186CB9
Copy CRC 08186CB9
Copy OK
No errors occurred
AccurateRip summary
Track 1 accurately ripped (confidence 4) [D234EDFD] (AR v2)
Track 2 accurately ripped (confidence 4) [8B737895] (AR v2)
Track 3 accurately ripped (confidence 4) [BC5434D4] (AR v2)
Track 4 accurately ripped (confidence 4) [62F81A89] (AR v2)
Track 5 accurately ripped (confidence 4) [E24D48B2] (AR v2)
Track 6 accurately ripped (confidence 4) [B44A7A22] (AR v2)
Track 7 accurately ripped (confidence 4) [57E39BD3] (AR v2)
Track 8 accurately ripped (confidence 4) [D17A627A] (AR v2)
Track 9 accurately ripped (confidence 4) [F11CFA5F] (AR v2)
Track 10 accurately ripped (confidence 4) [8662707F] (AR v2)
Track 11 accurately ripped (confidence 4) [6B5AE715] (AR v2)
Track 12 accurately ripped (confidence 4) [E89D3D5A] (AR v2)
Track 13 accurately ripped (confidence 4) [4A24318E] (AR v2)
Track 14 accurately ripped (confidence 4) [23BA7B8A] (AR v2)
All tracks accurately ripped
End of status report
==== Log checksum F357A3B60A0C344389A997ACE6D4CE779CD7DD41569473D37AB5B6CEBEF8203A ====
[teatrix.ru].t19007.torrent 
Торрент: Зарегистрирован [ 2016-03-18 12:25 ] · FA21761944B04E8B43FFAE726B0FDEF7BAC97D68

Скачать .torrent

Скачать

26 KB

Статус: проверено
Скачан: 0 раз
Размер: 319 MB
terms.php



Быстрый ответ

Имя:

      
Для отправки сообщений необходимо включить JavaScript
Показать сообщения:    

Текущее время: 03-Дек 01:22

Часовой пояс: UTC + 3


Вы можете начинать темы
Вы можете отвечать на сообщения
Вы не можете редактировать свои сообщения
Вы не можете удалять свои сообщения
Вы не можете голосовать в опросах
Вы не можете прикреплять файлы к сообщениям
Вы можете скачивать файлы