(Orchestral) The Igor Markevitch Legacy: Schubert - Symphonie Nr.3 | Mahler - Symphonie Nr.1 | Чайковский - Симфония №4 (Gewandhausorchester Leipzig - Игорь Маркевич) - Tahra - 1998, FLAC (image+.cue) lossless


Статистика раздачи [Обновить пиров]
Размер:  556 MB   |    Зарегистрирован:  8 месяцев 15 дней   |    Скачан:  0 раз

Полного источника не было: Никогда

Личеров:  4  [  0 KB/s  ]   Подробная статистика пиров
 
   
 
 
 

[Цитировать]

The Igor Markevitch Legacy
Works by Schubert Tchaikovsky and Mahler----- Жанр: Orchestral
Страна-производитель диска: France
Год издания диска: 1998
Издатель (лейбл): Tahra
Дата записи: 1978/82
Аудиокодек: FLAC
Тип рипа: image+.cue
Битрейт аудио: lossless
Продолжительность: 2:01'12''
Источник: собственный рип
Наличие сканов в содержимом раздачи: да
Треклист:

CD1

F.Schubert - Symphonie Nr.3:
[1] I. Adagio maestoso - Allegro con brio
[2] II. Allegretto
[3] III. Menuetto
[4] IV. Presto vivace
P.Tchaikovsky - Symphonie Nr.4:
[5] I. Andante sostenuto - Moderato con anima
[6] II. Andantino in modo di canzone
[7] III. Scherzo (pizzicato ostinato)
[8] IV. Allegro con fuoco

Лог создания рипа

Exact Audio Copy V1.0 beta 3 from 29. August 2011
EAC extraction logfile from 5. May 2014, 0:44
Gewandhausorchester Leipzig - Igor Markevitch / The Igor Markevitch Legacy, Vol.1 (CD1)
Used drive : COMPAQ CD-ROM LTN403 Adapter: 0 ID: 0
Read mode : Secure
Utilize accurate stream : Yes
Defeat audio cache : Yes
Make use of C2 pointers : No
Read offset correction : -1164
Overread into Lead-In and Lead-Out : No
Fill up missing offset samples with silence : Yes
Delete leading and trailing silent blocks : No
Null samples used in CRC calculations : Yes
Used interface : Native Win32 interface for Win NT & 2000
Used output format : User Defined Encoder
Selected bitrate : 1024 kBit/s
Quality : High
Add ID3 tag : No
Command line compressor : C:\Program Files\FLAC\flac.exe
Additional command line options : -T"COMMENT=rip by el coronel" -8 -V %source%
TOC of the extracted CD
Track | Start | Length | Start sector | End sector
---------------------------------------------------------
1 | 0:00.00 | 8:55.57 | 0 | 40181
2 | 8:55.57 | 3:53.60 | 40182 | 57716
3 | 12:49.42 | 3:55.03 | 57717 | 75344
4 | 16:44.45 | 7:49.57 | 75345 | 110576
5 | 24:34.27 | 20:27.50 | 110577 | 202651
6 | 45:02.02 | 10:53.73 | 202652 | 251699
7 | 55:56.00 | 5:43.35 | 251700 | 277459
8 | 61:39.35 | 9:46.55 | 277460 | 321464
Range status and errors
Selected range
Filename D:\The Igor Markevitch Legacy, Vol.1 (CD1).wav
Peak level 93.3 %
Extraction speed 3.0 X
Range quality 100.0 %
Test CRC 5E96BCB9
Copy CRC 5E96BCB9
Copy OK
No errors occurred
End of status report
==== Log checksum F2D146551106E7531FEEF0874DC7D88DF306DB62F80142B3C22804BFEE8ADD5F ====

Содержание индексной карты (.CUE)

REM GENRE Classical
REM DATE 1998
REM DISCID 6410BE08
REM COMMENT "ExactAudioCopy v1.0b3"
PERFORMER "Gewandhausorchester Leipzig - Igor Markevitch"
TITLE "The Igor Markevitch Legacy, Vol.1 (CD1)"
FILE "The Igor Markevitch Legacy, Vol.1 (CD1).flac" WAVE
TRACK 01 AUDIO
TITLE "F.Schubert - Symphonie Nr.3: I. Adagio maestoso - Allegro con brio"
PERFORMER "Gewandhausorchester Leipzig - Igor Markevitch"
INDEX 01 00:00:00
TRACK 02 AUDIO
TITLE "II. Allegretto"
PERFORMER "Gewandhausorchester Leipzig - Igor Markevitch"
INDEX 00 08:55:52
INDEX 01 08:55:57
TRACK 03 AUDIO
TITLE "III. Menuetto"
PERFORMER "Gewandhausorchester Leipzig - Igor Markevitch"
INDEX 01 12:49:42
TRACK 04 AUDIO
TITLE "IV. Presto vivace"
PERFORMER "Gewandhausorchester Leipzig - Igor Markevitch"
INDEX 01 16:44:45
TRACK 05 AUDIO
TITLE "P.Tchaikovsky - Symphonie Nr.4: I. Andante sostenuto - Moderato con anima"
PERFORMER "Gewandhausorchester Leipzig - Igor Markevitch"
INDEX 00 24:26:60
INDEX 01 24:34:27
TRACK 06 AUDIO
TITLE "II. Andantino in modo di canzone"
PERFORMER "Gewandhausorchester Leipzig - Igor Markevitch"
INDEX 00 45:02:00
INDEX 01 45:02:02
TRACK 07 AUDIO
TITLE "III. Scherzo (pizzicato ostinato)"
PERFORMER "Gewandhausorchester Leipzig - Igor Markevitch"
INDEX 00 55:55:74
INDEX 01 55:56:00
TRACK 08 AUDIO
TITLE "IV. Allegro con fuoco"
PERFORMER "Gewandhausorchester Leipzig - Igor Markevitch"
INDEX 00 61:39:27
INDEX 01 61:39:35

CD2

G.Mahler - Symphonie Nr.1:
[1] I. Langsam, schleppend
[2] II. Kraftig bewegt, doch nicht zu schnell
[3] III. Feierlich und gemessen, ohne zu schleppen
[4] IV. Sturmich bewegt

Лог создания рипа

Exact Audio Copy V1.0 beta 3 from 29. August 2011
EAC extraction logfile from 5. May 2014, 1:22
Gewandhausorchester Leipzig - Igor Markevitch / The Igor Markevitch Legacy, Vol.1 (CD2)
Used drive : COMPAQ CD-ROM LTN403 Adapter: 0 ID: 0
Read mode : Secure
Utilize accurate stream : Yes
Defeat audio cache : Yes
Make use of C2 pointers : No
Read offset correction : -1164
Overread into Lead-In and Lead-Out : No
Fill up missing offset samples with silence : Yes
Delete leading and trailing silent blocks : No
Null samples used in CRC calculations : Yes
Used interface : Native Win32 interface for Win NT & 2000
Used output format : User Defined Encoder
Selected bitrate : 1024 kBit/s
Quality : High
Add ID3 tag : No
Command line compressor : C:\Program Files\FLAC\flac.exe
Additional command line options : -T"COMMENT=rip by el coronel" -8 -V %source%
TOC of the extracted CD
Track | Start | Length | Start sector | End sector
---------------------------------------------------------
1 | 0:00.00 | 14:07.20 | 0 | 63544
2 | 14:07.20 | 6:44.32 | 63545 | 93876
3 | 20:51.52 | 10:06.73 | 93877 | 139399
4 | 30:58.50 | 18:47.10 | 139400 | 223934
Range status and errors
Selected range
Filename D:\The Igor Markevitch Legacy, Vol.1 (CD2).wav
Peak level 93.3 %
Extraction speed 3.0 X
Range quality 100.0 %
Test CRC 0D19361F
Copy CRC 0D19361F
Copy OK
No errors occurred
End of status report
==== Log checksum 329528DB629079562ECFE874CD49836D852DB8CEE6B5254B70E8F3BDF2FC4D93 ====

Содержание индексной карты (.CUE)

REM GENRE Classical
REM DATE 1998
REM DISCID 310BA904
REM COMMENT "ExactAudioCopy v1.0b3"
PERFORMER "Gewandhausorchester Leipzig - Igor Markevitch"
TITLE "The Igor Markevitch Legacy, Vol.1 (CD2)"
FILE "The Igor Markevitch Legacy, Vol.1 (CD2).flac" WAVE
TRACK 01 AUDIO
TITLE "G.Mahler - Symphonie Nr.1: I. Langsam, schleppend"
PERFORMER "Gewandhausorchester Leipzig - Igor Markevitch"
INDEX 01 00:00:00
TRACK 02 AUDIO
TITLE "II. Kraftig bewegt, doch nicht zu schnell"
PERFORMER "Gewandhausorchester Leipzig - Igor Markevitch"
INDEX 01 14:07:20
TRACK 03 AUDIO
TITLE "III. Feierlich und gemessen, ohne zu schleppen"
PERFORMER "Gewandhausorchester Leipzig - Igor Markevitch"
INDEX 01 20:51:52
TRACK 04 AUDIO
TITLE "IV. Sturmich bewegt"
PERFORMER "Gewandhausorchester Leipzig - Igor Markevitch"
INDEX 01 30:58:50
Исполнители:
Gewandhausorchester Leipzig - Igor Markevitch-
[teatrix.ru].t19011.torrent 
Торрент: Зарегистрирован [ 2016-03-18 12:38 ] · 0829E2B3F53501222D80655922B25D844E0CAB58

Скачать .torrent

Скачать

12 KB

Статус: проверено
Скачан: 0 раз
Размер: 556 MB
terms.php



Быстрый ответ

Имя:

      
Для отправки сообщений необходимо включить JavaScript
Показать сообщения:    

Текущее время: 03-Дек 03:16

Часовой пояс: UTC + 3


Вы можете начинать темы
Вы можете отвечать на сообщения
Вы не можете редактировать свои сообщения
Вы не можете удалять свои сообщения
Вы не можете голосовать в опросах
Вы не можете прикреплять файлы к сообщениям
Вы можете скачивать файлы