(Classical) Григ – Скрипичные сонаты / Grieg – Violin Sonatas (Kraggerud, Kjekshus) - 1997, FLAC (image+.cue) lossless


 

[Цитировать]

Григ – Скрипичные сонаты / Grieg – Violin Sonatas (Kraggerud, Kjekshus)
Жанр: Classical
Страна-производитель диска: Германия
Год издания диска: 1997
Издатель (лейбл): Naxos
Номер по каталогу: 8.553904
Дата записи: 4 — 6 ноября 1996 г., Ист-Вудхей (Гэмпшир).
Аудиокодек: FLAC
Тип рипа: image+.cue
Битрейт аудио: lossless
Продолжительность: 01:06:50
Источник: odeonmusic
Наличие сканов в содержимом раздачи: да
Треклист:
Эдвард Хагеруп Григ (1843 — 1907).
Три сонаты для фортепиано и скрипки.
Соната № 1 F-dur, op. 8 (1865).
01. I. Allegro con brio [09:11].
02. II. Allegretto quasi andantino [05:29].
03. III. Allegro molto vivace [06:47].
Соната № 2 G-dur, op. 13 (1867).
04. I. Lento doloroso. — Poco allegro. — Allegro vivace [09:27].
05. II. Allegretto tranquillo [06:46].
06. III. Allegro animato [05:22].
Соната № 3 c-moll, op. 45 (1886 — 1887).
07. I. Allegro molto ed appassionato [08:56].
08. II. Allegro espressivo alla romanza [06:10].
09. III. Allegro animato [07:59].
Исполнители:
Henning Kraggerud (скрипка),
Helge Kjekshus (фортепиано).

Лог создания рипа

Exact Audio Copy V1.0 beta 3 from 29. August 2011
EAC extraction logfile from 30. March 2014, 19:15
Henning Kraggerud / Grieg - Violin Sonatas Nos. 1-3 - Henning Kraggerud
Used drive : TSSTcorpCDDVDW SH-222BB Adapter: 2 ID: 1
Read mode : Secure
Utilize accurate stream : Yes
Defeat audio cache : Yes
Make use of C2 pointers : No
Read offset correction : 6
Overread into Lead-In and Lead-Out : No
Fill up missing offset samples with silence : Yes
Delete leading and trailing silent blocks : No
Null samples used in CRC calculations : Yes
Used interface : Native Win32 interface for Win NT & 2000
Used output format : User Defined Encoder
Selected bitrate : 896 kBit/s
Quality : High
Add ID3 tag : No
Command line compressor : C:\Program Files\Exact Audio Copy\FLAC\FLAC.EXE
Additional command line options : -8 -V -T "TITLE=%title%" -T "ARTIST=%artist%" -T "ALBUMARTIST=%albumartist%" -T "ALBUM=%albumtitle%" -T "DATE=%year%" -T "TRACKNUMBER=%tracknr%" -T "TRACKTOTAL=%numtracks%" -T "GENRE=%genre%" -T "COMMENT=%comment%" -T "PERFORMER=%albuminterpret%" -T "COMPOSER=%composer%" %source% -o %dest%
TOC of the extracted CD
Track | Start | Length | Start sector | End sector
---------------------------------------------------------
1 | 0:00.00 | 9:14.37 | 0 | 41586
2 | 9:14.37 | 5:34.03 | 41587 | 66639
3 | 14:48.40 | 6:57.30 | 66640 | 97944
4 | 21:45.70 | 9:31.35 | 97945 | 140804
5 | 31:17.30 | 6:45.55 | 140805 | 171234
6 | 38:03.10 | 5:31.00 | 171235 | 196059
7 | 43:34.10 | 9:01.02 | 196060 | 236636
8 | 52:35.12 | 6:13.65 | 236637 | 264676
9 | 58:49.02 | 7:59.00 | 264677 | 300601
Range status and errors
Selected range
Filename E:\3000\[3586] Grieg – Violin Sonatas Nos. 1-3 – Henning Kraggerud\Grieg - Violin Sonatas Nos. 1-3 - Henning Kraggerud.wav
Peak level 85.4 %
Extraction speed 7.1 X
Range quality 100.0 %
Test CRC 722E928B
Copy CRC 722E928B
Copy OK
No errors occurred
AccurateRip summary
Track 1 accurately ripped (confidence 2) [E7243A40] (AR v1)
Track 2 accurately ripped (confidence 2) [77C3A89E] (AR v1)
Track 3 accurately ripped (confidence 2) [8C24E188] (AR v1)
Track 4 accurately ripped (confidence 2) [2FDFE229] (AR v1)
Track 5 accurately ripped (confidence 2) [39B555F6] (AR v1)
Track 6 accurately ripped (confidence 2) [ACB8EF37] (AR v1)
Track 7 accurately ripped (confidence 2) [8563F7E6] (AR v1)
Track 8 accurately ripped (confidence 2) [CF3FCE00] (AR v1)
Track 9 accurately ripped (confidence 2) [AF3ED206] (AR v1)
All tracks accurately ripped
End of status report
==== Log checksum 5343D9DED482E78104B555C9F233955C4A63B59AA55126D29A8B4D99025F7D6A ====

Содержание индексной карты (.CUE)

REM GENRE Classical
REM DATE 1997
REM DISCID 830FA809
REM COMMENT "ExactAudioCopy v1.0b3"
CATALOG 0000000000000
PERFORMER "Henning Kraggerud & Helge Kjekshus"
TITLE "Grieg – Violin Sonatas Nos. 1 – 3 – Henning Kraggerud"
FILE "Grieg – Violin Sonatas Nos. 1 – 3 – Henning Kraggerud.flac" WAVE
TRACK 01 AUDIO
TITLE "Violin Sonata No. 1 in F major, Op. 8 - I. Allegro con brio"
PERFORMER "Henning Kraggerud & Helge Kjekshus"
ISRC HKI199644501
INDEX 01 00:00:00
TRACK 02 AUDIO
TITLE "Violin Sonata No. 1 in F major, Op. 8 - II. Allegretto quasi andantino"
PERFORMER "Henning Kraggerud & Helge Kjekshus"
ISRC HKI199644502
INDEX 00 09:10:45
INDEX 01 09:14:37
TRACK 03 AUDIO
TITLE "Violin Sonata No. 1 in F major, Op. 8 - III. Allegro molto vivace"
PERFORMER "Henning Kraggerud & Helge Kjekshus"
ISRC HKI199644503
INDEX 00 14:43:35
INDEX 01 14:48:40
TRACK 04 AUDIO
TITLE "Violin Sonata No. 2 in G major, Op. 13 - I. Lento doloroso - Allegro vivace"
PERFORMER "Henning Kraggerud & Helge Kjekshus"
ISRC HKI199644504
INDEX 00 21:35:29
INDEX 01 21:45:70
TRACK 05 AUDIO
TITLE "Violin Sonata No. 2 in G major, Op. 13 - II. Allegretto tranquillo"
PERFORMER "Henning Kraggerud & Helge Kjekshus"
ISRC HKI199644505
INDEX 00 31:13:04
INDEX 01 31:17:30
TRACK 06 AUDIO
TITLE "Violin Sonata No. 2 in G major, Op. 13 - III. Allegro animato"
PERFORMER "Henning Kraggerud & Helge Kjekshus"
ISRC HKI199644506
INDEX 01 38:03:10
TRACK 07 AUDIO
TITLE "Violin Sonata No. 3 in C minor, Op. 45 - I. Allegro molto ed appasionato"
PERFORMER "Henning Kraggerud & Helge Kjekshus"
ISRC HKI199644507
INDEX 00 43:25:03
INDEX 01 43:34:10
TRACK 08 AUDIO
TITLE "Violin Sonata No. 3 in C minor, Op. 45 - II. Allegretto espressivo alla Romanza"
PERFORMER "Henning Kraggerud & Helge Kjekshus"
ISRC HKI199644508
INDEX 00 52:30:53
INDEX 01 52:35:12
TRACK 09 AUDIO
TITLE "Violin Sonata No. 3 in C minor, Op. 45 - III. Allegro animato"
PERFORMER "Henning Kraggerud & Helge Kjekshus"
ISRC HKI199644509
INDEX 00 58:45:55
INDEX 01 58:49:02
-Григ–Краггеруд–Лунн. Скрипичные концерты по сонатам opp. 8, 13, 45 (Henning Kraggerud).



Показать сообщения:    

Текущее время: 05-Дек 05:29

Часовой пояс: UTC + 3


Вы не можете начинать темы
Вы не можете отвечать на сообщения
Вы не можете редактировать свои сообщения
Вы не можете удалять свои сообщения
Вы не можете голосовать в опросах
Вы не можете прикреплять файлы к сообщениям
Вы не можете скачивать файлы