(Classical, Jazz, Trip Hop, Electronic) Catya Maré (Catya Mare) — Destination Love - 2010, FLAC (tracks+.cue), lossless


 

[Цитировать]

Catya Maré — Destination Love - -
Жанр: Classical, Electronic, Pop, Trip Hop, Smooth Jazz,
Easy Listening, New Age, Fusion, Ambient, Downtempo
Страна: UK, Europe & US
Год издания диска: 2010
Издатель (лейбл): Catya Maré Music
Номер по каталогу: 0786851590661
Аудио кодек: FLAC
Тип рипа: (tracks+.cue)
Битрейт аудио: lossless
Продолжительность: 0:53:34
Источник: what.cd
Наличие сканов в содержимом раздачи: нет

-
Треклист:

1 Sparkling Love
2 Flying Free
3 Clouds
4 Epic Flow
5 You & Me
6 It Came True
7 Leaving
8 Epic Love
9 Remembering The Day
10 New Beginnings
11 Light Longing
12 Reminiscence
13 Memories
14 Destination Love
15 Sunny Time
16 For You

Лог создания рипа

Exact Audio Copy V1.0 beta 3 from 29. August 2011
EAC extraction logfile from 29. July 2014, 10:01
Catya Maré / Destination Love
Used drive : TSSTcorpCDDVDW SH-S222A Adapter: 0 ID: 0
Read mode : Secure
Utilize accurate stream : Yes
Defeat audio cache : Yes
Make use of C2 pointers : No
Read offset correction : 6
Overread into Lead-In and Lead-Out : No
Fill up missing offset samples with silence : Yes
Delete leading and trailing silent blocks : No
Null samples used in CRC calculations : Yes
Used interface : Native Win32 interface for Win NT & 2000
Gap handling : Appended to previous track
Used output format : User Defined Encoder
Selected bitrate : 1024 kBit/s
Quality : High
Add ID3 tag : No
Command line compressor : C:\Users\Raphael\Desktop\ExactAudioCopyPortable\App\EAC\Flac\flac.exe
Additional command line options : -8 -V -T "ARTIST=%artist%" -T "TITLE=%title%" -T "ALBUM=%albumtitle%" -T "DATE=%year%" -T "TRACKNUMBER=%tracknr%" -T "GENRE=%genre%" -T "PERFORMER=%albuminterpret%" -T "COMPOSER=%composer%" %haslyrics%--tag-from-file=LYRICS="%lyricsfile%"%haslyrics% -T "ALBUMARTIST=%albumartist%" -T "DISCNUMBER=%cdnumber%" -T "TOTALDISCS=%totalcds%" -T "TOTALTRACKS=%numtracks%" -T "COMMENT=%comment%" %source% -o %dest%
TOC of the extracted CD
Track | Start | Length | Start sector | End sector
---------------------------------------------------------
1 | 0:00.00 | 3:38.07 | 0 | 16356
2 | 3:38.07 | 2:36.43 | 16357 | 28099
3 | 6:14.50 | 3:34.05 | 28100 | 44154
4 | 9:48.55 | 3:04.04 | 44155 | 57958
5 | 12:52.59 | 3:02.05 | 57959 | 71613
6 | 15:54.64 | 4:02.05 | 71614 | 89768
7 | 19:56.69 | 3:14.04 | 89769 | 104322
8 | 23:10.73 | 2:50.43 | 104323 | 117115
9 | 26:01.41 | 3:37.05 | 117116 | 133395
10 | 29:38.46 | 4:40.41 | 133396 | 154436
11 | 34:19.12 | 3:53.04 | 154437 | 171915
12 | 38:12.16 | 3:23.07 | 171916 | 187147
13 | 41:35.23 | 3:09.05 | 187148 | 201327
14 | 44:44.28 | 3:15.04 | 201328 | 215956
15 | 47:59.32 | 2:30.05 | 215957 | 227211
16 | 50:29.37 | 3:04.41 | 227212 | 241052
Track 1
Filename C:\EAC\01 - Track01.wav
Pre-gap length 0:00:02.00
Peak level 100.0 %
Extraction speed 3.8 X
Track quality 99.9 %
Test CRC 64295509
Copy CRC 64295509
Track not present in AccurateRip database
Copy OK
Track 2
Filename C:\EAC\02 - Track02.wav
Peak level 100.0 %
Extraction speed 4.7 X
Track quality 100.0 %
Test CRC E6149E67
Copy CRC E6149E67
Track not present in AccurateRip database
Copy OK
Track 3
Filename C:\EAC\03 - Track03.wav
Peak level 100.0 %
Extraction speed 5.2 X
Track quality 100.0 %
Test CRC 457D651A
Copy CRC 457D651A
Track not present in AccurateRip database
Copy OK
Track 4
Filename C:\EAC\04 - Track04.wav
Peak level 100.0 %
Extraction speed 5.5 X
Track quality 100.0 %
Test CRC E7D3B094
Copy CRC E7D3B094
Track not present in AccurateRip database
Copy OK
Track 5
Filename C:\EAC\05 - Track05.wav
Peak level 100.0 %
Extraction speed 5.7 X
Track quality 100.0 %
Test CRC 16817DDC
Copy CRC 16817DDC
Track not present in AccurateRip database
Copy OK
Track 6
Filename C:\EAC\06 - Track06.wav
Peak level 100.0 %
Extraction speed 6.2 X
Track quality 100.0 %
Test CRC 8B593AE9
Copy CRC 8B593AE9
Track not present in AccurateRip database
Copy OK
Track 7
Filename C:\EAC\07 - Track07.wav
Peak level 100.0 %
Extraction speed 6.2 X
Track quality 100.0 %
Test CRC E942EF06
Copy CRC E942EF06
Track not present in AccurateRip database
Copy OK
Track 8
Filename C:\EAC\08 - Track08.wav
Peak level 100.0 %
Extraction speed 6.3 X
Track quality 100.0 %
Test CRC D620F800
Copy CRC D620F800
Track not present in AccurateRip database
Copy OK
Track 9
Filename C:\EAC\09 - Track09.wav
Peak level 100.0 %
Extraction speed 6.8 X
Track quality 100.0 %
Test CRC D35F7F29
Copy CRC D35F7F29
Track not present in AccurateRip database
Copy OK
Track 10
Filename C:\EAC\10 - Track10.wav
Peak level 100.0 %
Extraction speed 6.0 X
Track quality 99.9 %
Test CRC B7C55389
Copy CRC B7C55389
Track not present in AccurateRip database
Copy OK
Track 11
Filename C:\EAC\11 - Track11.wav
Peak level 100.0 %
Extraction speed 5.9 X
Track quality 99.9 %
Test CRC 612BCE24
Copy CRC 612BCE24
Track not present in AccurateRip database
Copy OK
Track 12
Filename C:\EAC\12 - Track12.wav
Peak level 100.0 %
Extraction speed 7.4 X
Track quality 100.0 %
Test CRC 4BC567AA
Copy CRC 4BC567AA
Track not present in AccurateRip database
Copy OK
Track 13
Filename C:\EAC\13 - Track13.wav
Peak level 100.0 %
Extraction speed 7.6 X
Track quality 100.0 %
Test CRC 4B7DAC06
Copy CRC 4B7DAC06
Track not present in AccurateRip database
Copy OK
Track 14
Filename C:\EAC\14 - Track14.wav
Peak level 100.0 %
Extraction speed 7.7 X
Track quality 100.0 %
Test CRC 9BA7FA51
Copy CRC 9BA7FA51
Track not present in AccurateRip database
Copy OK
Track 15
Filename C:\EAC\15 - Track15.wav
Peak level 100.0 %
Extraction speed 5.5 X
Track quality 99.9 %
Test CRC B0F3B08D
Copy CRC B0F3B08D
Track not present in AccurateRip database
Copy OK
Track 16
Filename C:\EAC\16 - Track16.wav
Peak level 100.0 %
Extraction speed 7.9 X
Track quality 100.0 %
Test CRC 753F458E
Copy CRC 753F458E
Track not present in AccurateRip database
Copy OK
None of the tracks are present in the AccurateRip database
No errors occurred
End of status report
---- CUETools DB Plugin V2.1.3
[CTDB TOCID: .vhQCL1WiLHmbXO1uLNdEX1xbPc-] database access error: The remote name could not be resolved: 'db.cuetools.net'
==== Log checksum A4FF17385A23DA20EB899403D24B73530E15AB955EF6F66827BB49356DF508C1 ====

Содержание индексной карты

REM DISCID EB0C8E10
REM COMMENT "ExactAudioCopy v1.0b3"
PERFORMER "Catya Marй"
TITLE "Destination Love"
FILE "01 - Track01.wav" WAVE
TRACK 01 AUDIO
TITLE "Track01"
PERFORMER "Catya Marй"
FLAGS DCP
INDEX 01 00:00:00
FILE "02 - Track02.wav" WAVE
TRACK 02 AUDIO
TITLE "Track02"
PERFORMER "Catya Marй"
FLAGS DCP
INDEX 01 00:00:00
FILE "03 - Track03.wav" WAVE
TRACK 03 AUDIO
TITLE "Track03"
PERFORMER "Catya Marй"
FLAGS DCP
INDEX 01 00:00:00
FILE "04 - Track04.wav" WAVE
TRACK 04 AUDIO
TITLE "Track04"
PERFORMER "Catya Marй"
FLAGS DCP
INDEX 01 00:00:00
FILE "05 - Track05.wav" WAVE
TRACK 05 AUDIO
TITLE "Track05"
PERFORMER "Catya Marй"
FLAGS DCP
INDEX 01 00:00:00
FILE "06 - Track06.wav" WAVE
TRACK 06 AUDIO
TITLE "Track06"
PERFORMER "Catya Marй"
FLAGS DCP
INDEX 01 00:00:00
FILE "07 - Track07.wav" WAVE
TRACK 07 AUDIO
TITLE "Track07"
PERFORMER "Catya Marй"
FLAGS DCP
INDEX 01 00:00:00
FILE "08 - Track08.wav" WAVE
TRACK 08 AUDIO
TITLE "Track08"
PERFORMER "Catya Marй"
FLAGS DCP
INDEX 01 00:00:00
FILE "09 - Track09.wav" WAVE
TRACK 09 AUDIO
TITLE "Track09"
PERFORMER "Catya Marй"
FLAGS DCP
INDEX 01 00:00:00
FILE "10 - Track10.wav" WAVE
TRACK 10 AUDIO
TITLE "Track10"
PERFORMER "Catya Marй"
FLAGS DCP
INDEX 01 00:00:00
FILE "11 - Track11.wav" WAVE
TRACK 11 AUDIO
TITLE "Track11"
PERFORMER "Catya Marй"
FLAGS DCP
INDEX 01 00:00:00
FILE "12 - Track12.wav" WAVE
TRACK 12 AUDIO
TITLE "Track12"
PERFORMER "Catya Marй"
FLAGS DCP
INDEX 01 00:00:00
FILE "13 - Track13.wav" WAVE
TRACK 13 AUDIO
TITLE "Track13"
PERFORMER "Catya Marй"
FLAGS DCP
INDEX 01 00:00:00
FILE "14 - Track14.wav" WAVE
TRACK 14 AUDIO
TITLE "Track14"
PERFORMER "Catya Marй"
FLAGS DCP
INDEX 01 00:00:00
FILE "15 - Track15.wav" WAVE
TRACK 15 AUDIO
TITLE "Track15"
PERFORMER "Catya Marй"
FLAGS DCP
INDEX 01 00:00:00
FILE "16 - Track16.wav" WAVE
TRACK 16 AUDIO
TITLE "Track16"
PERFORMER "Catya Marй"
FLAGS DCP
INDEX 01 00:00:00

Лог auCDtect

-----------------------
DON'T MODIFY THIS FILE
-----------------------
PERFORMER: auCDtect Task Manager, ver. 1.6.0 RC1 build 1.6.0.1
Copyright (c) 2008-2010 y-soft. All rights reserved
http://y-soft.org
ANALYZER: auCDtect: CD records authenticity detector, version 0.8.2
Copyright (c) 2004 Oleg Berngardt. All rights reserved.
Copyright (c) 2004 Alexander Djourik. All rights reserved.
FILE: 16 - For You.flac
Size: 18774095 Hash: FBAAEA7FED221E1F1970A57BC113C7ED Accuracy: -m0
Conclusion: MPEG 95%
Signature: 9E39766949A2D9CE1A20B4A813562BA2DDFE47F5
FILE: 01 - Sparkling Love.flac
Size: 23740316 Hash: 333C7F3D550DB56F4E686AF9A6FD06E6 Accuracy: -m0
Conclusion: CDDA 100%
Signature: 89DB1A30D5B6697A04D48B58D2825828F75ACBFD
FILE: 02 - Flying Free.flac
Size: 15897014 Hash: F96F59DB23860691AE4120AEEF895849 Accuracy: -m0
Conclusion: MPEG 95%
Signature: 42C95E37B484D74A809C2D751D2184A64B619D88
FILE: 03 - Clouds.flac
Size: 21918105 Hash: 86CBA056946B32BA9B27DE27852009E5 Accuracy: -m0
Conclusion: MPEG 95%
Signature: 66A3B54E72D028C17882DA50AFBC0D796C448540
FILE: 04 - Epic Flow.flac
Size: 20426527 Hash: 6E7B536C11D5166F29C1CA378315FD1F Accuracy: -m0
Conclusion: CDDA 100%
Signature: 775D455F42AF989EF8F410A089DAE0AAB356CE84
FILE: 05 - You & Me.flac
Size: 17531750 Hash: B8765AA1F07D55A72054F0C5B625770B Accuracy: -m0
Conclusion: MPEG 95%
Signature: 044E75B8C889A51E37FEC3E52EAA1FC8E77872F0
FILE: 06 - It Came True.flac
Size: 25914101 Hash: 19918A68E65B08275F7C22E96DCFDAFD Accuracy: -m0
Conclusion: CDDA 100%
Signature: C4BEDDC83252FE6A4A98B0CA3865FC064445573F
FILE: 07 - Leaving.flac
Size: 18586637 Hash: BDEA5751D8155B6AA8BE8C51E2251E60 Accuracy: -m0
Conclusion: MPEG 95%
Signature: 611B7A7B838E883113DB114E8C79CDCB212F28C8
FILE: 08 - Epic Love.flac
Size: 18513311 Hash: 2A8B8B7DC1A60BDF2BEA3340855CE0D1 Accuracy: -m0
Conclusion: MPEG 95%
Signature: F1E03F8EAFFC6F50A15C96C312683BFAE992410D
FILE: 09 - Remembering the Day.flac
Size: 20611449 Hash: 32006BBAF1C89E0FE797BF8BAE4A1239 Accuracy: -m0
Conclusion: MPEG 95%
Signature: 4A44B0FE6144AEEBC467269B93667832D30D748C
FILE: 10 - New Beginnings.flac
Size: 30275989 Hash: 64057AABA419F9F31289C987DAA32220 Accuracy: -m0
Conclusion: CDDA 100%
Signature: 89C26655DFA8A65F6ED2635CD9C9AEDC23CB333F
FILE: 11 - Light Longing.flac
Size: 26962239 Hash: 38B5F5F104CC6B94A2F7DC13E2CCD109 Accuracy: -m0
Conclusion: MPEG 79%
Signature: 6FE519776D8CE7F001A5A11E06CD03B0CF1A4049
FILE: 12 - Reminiscence.flac
Size: 23332871 Hash: 4638F460D4903719F1B0961F5ECF18E4 Accuracy: -m0
Conclusion: CDDA 94%
Signature: E7CAC9052681F126C14EADC5290037B048861040
FILE: 13 - Memories.flac
Size: 18021635 Hash: 8D667086E08E7DF407F2FADE70C97F3D Accuracy: -m0
Conclusion: CDDA 99%
Signature: E2298BCB4F9632CDE66C89A0712E7316F61860A0
FILE: 14 - Destination Love.flac
Size: 20476714 Hash: F752D6C8A2594D0E07AFA0A2CC594F2D Accuracy: -m0
Conclusion: CDDA 100%
Signature: E9DF90843EB907DD24C00C8081D1A9607DFA5EE8
FILE: 15 - Sunny Time.flac
Size: 11778997 Hash: E5734183130B842148C8FA864E394957 Accuracy: -m0
Conclusion: CDDA 87%
Signature: 6F63DADAB073B3EFDB367CF7391889572608B039

Скриншот спектра частот








-Официальный сайт | Discogs* | Wikipedia-
Об исполнителеhttp://www.catyamare.com/
http://en.wikipedia.org/wiki/Catya_Mar%C3%A9
Цитата:
Catya Maré (произношение: Catya Maree) является множество наград композитор, музыкальный продюсер, классический кроссовер скрипач, художник и писатель из Германии, в настоящее время находится в Калифорнии. Она получила американскую грин-карту на основе ее достижений в музыкальной сфере. Maré выступал как классический скрипач с раннего детства, и сделал многочисленные выступления в концертных залах и крупных музеев, таких как Национальная галерея Берлина, [1] изобразительных искусств Цюриха, Kunsthallen Brandts, [2] и Kunstmuseet Trapholt. В 2006 году она начала сочинять и производить свою собственную музыку (Электронная / Поп / Мир / Celtic новый век / Classical Crossover). Maré был номинирован на голливудской музыкальной премии в ноябре 2008 года и выиграл Billboard мира написание песен конкурса в феврале 2009 года В ноябре 2009 года она выиграла Hollywood Music в премии Медиа и в декабре 2010 года написание песен конкуренции США. Октября 2010 г. она получила американскую Green Card на основе ее достижений. В августе 2011 Catya Maré's клип "Tell Me Why ..." был номинирован на Оставайтесь с нами ТВ Award / Международного телевизионного фестиваля. В 2012 и 2013 годах, она получила дополнительные номинации на престижную голливудской музыки в премии Media.
В это время Catya Maré является самым известным за ее многократного наградами New Age / Classical Crossover музыкальные композиции; Однако, она одновременно ведет активную качестве визуального художника и писателя всю жизнь. В сентябре 2013 года она выпустила два поэтических книг, "серебристой Момент" и "Белый Мрамор". Сложные, эмоционально интригующие и флагов размышления стиль хайку, которые доступны из AMAZON.COM
Это первый релиз Кати Маре на трекере * если у Вас Discogs выдает ошибку 500 Internal Server Error, попробуйте открыть в другом браузере, не переходя с рутрекера.



Показать сообщения:    

Текущее время: 05-Дек 05:32

Часовой пояс: UTC + 3


Вы не можете начинать темы
Вы не можете отвечать на сообщения
Вы не можете редактировать свои сообщения
Вы не можете удалять свои сообщения
Вы не можете голосовать в опросах
Вы не можете прикреплять файлы к сообщениям
Вы не можете скачивать файлы