(Classical, vocal) L'heure exquise - Enesco-Sept chansons de clement marot; Hahn-Five little songs; Chausson-L'Albatros, Apaisement; Debussy-Fetes galantes II (Marie-Nicole Lemieux, Daniel Blumenthal) - 2007, FLAC (image+.cue) lossless


 

[Цитировать]

L'heure exquise-
Enesco-Sept chansons de clement marot; Hahn-Five little songs;
Chausson-L'Albatros, Apaisement; Debussy-Fetes galantes II
(Marie-Nicole Lemieux, Daniel Blumenthal)
Жанр: Classical, vocal
Страна-производитель диска: E.U.
Год издания диска: 2007
Издатель (лейбл): Naïve
Номер по каталогу: V 5022
Дата записи: 05.2005
Аудиокодек: FLAC
Тип рипа: image+.cue
Битрейт аудио: lossless
Продолжительность: 01:05:05
Источник: JVA
Наличие сканов в содержимом раздачи: да
Треклист:
Georges Enesco (1881-1955)
sept chansons de clément marot, op. 15(poèmes de Clément Marot) 1908
01. Estreines à Anne (1:09)
02. Languir me faits (1:51)
03. Aux damoyselles paresseuses d'escrire a leurs amys (0:50)
04. Estrene de la rose (2:30)
05. Present de couleur blanche (1:21)
06. Changeons propos, c'est trop chanté d'amours... (2:04)
07. Du confict en douleur (3:41)
Reynaldo Hahn (1875-1947)
08. D'une prison (poème de Paul Verlaine) 1893 (2:26)
09. L'heure exquise (poème de Paul Verlaine) 1890 (1:58)
10. Fêtes galantes (poème de Paul Verlaine) 1893 (1:43)
Ernest Chausson (1855-1899)
11. L'Albatros (poème de Charles Baudelaire) 1879 (3:23)
12. Le Chevalier Malheur, opus 34 n°2 (poème de Paul Verlaine) 1898 (3:57)
13. Apaisement, opus 13 n°1 (poème de Paul Verlaine) 1885 (1:58)
14. La chanson bien douce, opus 34 n°1 (poème de Paul Verlaine) 1898 (2:47)
Reynaldo Hahn
15. Offrande (poème de Paul Verlaine) 1893 (2:27)
16. À Chloris (роèmе de Théophile de Viau) 1913 (2:48)
Five little songs (poèmes de Robert Louis Stevenson) 1915
17. The swing (1:47)
18. Windy nights (0:48)
19. My ship and I (2:08)
20. The stars (2:30)
21. A good boy (1:35)
Claude Debussy (1862-1918)
fêtes galantes II (poèmes de Paul Verlaine) 1904
22. Les ingénus (2:21)
23. Le faune (2:03)
24. Collogue sentimental (4:10)
Reynaldo Hahn
25. Puisque j'ai mis ma lèvre (poème de Victor Hugo) 1896 (4:34)
26. Trois jours de vendange (poème d'Alphonse Daudet) 1893 (3:21)
27. Quand la nuit n'est pas étoilée (poème de Victor Hugo) 1900 (2:55)
Исполнители:
Marie-Nicole Lemieux - contralto
Daniel Blumenthal piano

Лог создания рипа

Exact Audio Copy V0.99 prebeta 5 from 4. May 2009
Отчёт EAC об извлечении, выполненном 8. августа 2014, 16:58
Lemieux / L'Heure Exquise
Дисковод: ATAPI iHAS124 E Adapter: 0 ID: 0
Режим чтения : Достоверность
Использование точного потока : Да
Отключение кэша аудио : Да
Использование указателей C2 : Нет
Коррекция смещения при чтении : 6
Способность читать области Lead-in и Lead-out : Нет
Заполнение пропущенных сэмплов тишиной : Да
Удаление блоков с тишиной в начале и конце : Нет
При вычислениях CRC использовались нулевые сэмплы : Да
Интерфейс : Встроенный Win32-интерфейс для Win NT/2000
Выходной формат : Пользовательский кодировщик
Выбранный битрейт : 768 kBit/s
Качество : Высокий
Добавление ID3-тэга : Нет
Утилита сжатия : C:\Program Files\Exact Audio Copy\Flac\flac.exe
Дополнительные параметры : -6 -V -T "ARTIST=%a" -T "TITLE=%t" -T "ALBUM=%g" -T "DATE=%y" -T "TRACKNUMBER=%n" -T "GENRE=%m" -T "COMMENT=%e" %s -o %d
TOC извлечённого CD
Трек | Старт | Длительность | Начальный сектор | Конечный сектор
---------------------------------------------------------------------
1 | 0:00.00 | 1:06.59 | 0 | 5008
2 | 1:06.59 | 1:51.08 | 5009 | 13341
3 | 2:57.67 | 0:49.63 | 13342 | 17079
4 | 3:47.55 | 2:30.50 | 17080 | 28379
5 | 6:18.30 | 1:21.37 | 28380 | 34491
6 | 7:39.67 | 2:03.60 | 34492 | 43776
7 | 9:43.52 | 3:40.64 | 43777 | 60340
8 | 13:24.41 | 2:25.68 | 60341 | 71283
9 | 15:50.34 | 1:58.05 | 71284 | 80138
10 | 17:48.39 | 1:42.63 | 80139 | 87851
11 | 19:31.27 | 3:23.11 | 87852 | 103087
12 | 22:54.38 | 3:56.63 | 103088 | 120850
13 | 26:51.26 | 1:58.06 | 120851 | 129706
14 | 28:49.32 | 2:47.43 | 129707 | 142274
15 | 31:37.00 | 2:26.63 | 142275 | 153287
16 | 34:03.63 | 2:48.05 | 153288 | 165892
17 | 36:51.68 | 1:46.54 | 165893 | 173896
18 | 38:38.47 | 0:48.18 | 173897 | 177514
19 | 39:26.65 | 2:07.74 | 177515 | 187113
20 | 41:34.64 | 2:29.37 | 187114 | 198325
21 | 44:04.26 | 1:34.47 | 198326 | 205422
22 | 45:38.73 | 2:21.20 | 205423 | 216017
23 | 48:00.18 | 2:03.05 | 216018 | 225247
24 | 50:03.23 | 4:10.17 | 225248 | 244014
25 | 54:13.40 | 4:34.34 | 244015 | 264598
26 | 58:47.74 | 3:21.09 | 264599 | 279682
27 | 62:09.08 | 2:54.61 | 279683 | 292793
Характеристики диапазона извлечения и сообщения об ошибках
Выбранный диапазон
Имя файла C:\EAC\Lemieux - L'Heure Exquise\Lemieux - L'Heure Exquise.wav
Пиковый уровень 98.8 %
Качество диапазона 100.0 %
CRC копии 2AA015AF
Копирование... OK
Ошибок не произошло
AccurateRip: сводка
Трек 1 точное извлечение (доверие 5) [726D2976]
Трек 2 точное извлечение (доверие 5) [0C458D21]
Трек 3 точное извлечение (доверие 5) [7164071A]
Трек 4 точное извлечение (доверие 5) [8914E783]
Трек 5 точное извлечение (доверие 5) [60540F55]
Трек 6 точное извлечение (доверие 5) [DF09678D]
Трек 7 точное извлечение (доверие 5) [56B43D7E]
Трек 8 точное извлечение (доверие 5) [D7377C53]
Трек 9 точное извлечение (доверие 5) [1D72979F]
Трек 10 точное извлечение (доверие 5) [718CD889]
Трек 11 точное извлечение (доверие 5) [D00985C2]
Трек 12 точное извлечение (доверие 5) [C4DA49D2]
Трек 13 точное извлечение (доверие 5) [ABF0052A]
Трек 14 точное извлечение (доверие 5) [301AFE13]
Трек 15 точное извлечение (доверие 5) [C3EB2A77]
Трек 16 точное извлечение (доверие 5) [BBD57AA5]
Трек 17 точное извлечение (доверие 5) [133753A9]
Трек 18 точное извлечение (доверие 5) [B3660B44]
Трек 19 точное извлечение (доверие 5) [4F20C359]
Трек 20 точное извлечение (доверие 5) [F6A9AE8C]
Трек 21 точное извлечение (доверие 4) [D5B4BB60]
Трек 22 точное извлечение (доверие 5) [693108D6]
Трек 23 точное извлечение (доверие 5) [F861B2D7]
Трек 24 точное извлечение (доверие 5) [BCD3D6AE]
Трек 25 точное извлечение (доверие 5) [77563755]
Трек 26 точное извлечение (доверие 5) [C20B8FB6]
Трек 27 точное извлечение (доверие 5) [9BB3AE72]
Все треки извлечены точно
Конец отчёта

Лог проверки качества


Скриншот спектра частот




Показать сообщения:    

Текущее время: 05-Дек 05:24

Часовой пояс: UTC + 3


Вы не можете начинать темы
Вы не можете отвечать на сообщения
Вы не можете редактировать свои сообщения
Вы не можете удалять свои сообщения
Вы не можете голосовать в опросах
Вы не можете прикреплять файлы к сообщениям
Вы не можете скачивать файлы