Бастер Китон - в Голливуде вверх тормашками / Buster Keaton - Head Over Heels in Hollywood (Джон Корк / John Cork) [2008, США, документальный, DVDRip] VO (fiendover) + Original (ENG)


Статистика раздачи [Обновить пиров]
Размер:  125 MB   |    Зарегистрирован:  8 месяцев 20 дней   |    Скачан:  0 раз

Полного источника не было: Никогда

Личеров:  3  [  0 KB/s  ]   Подробная статистика пиров
 
   
 
 
 

[Цитировать]

Бастер Китон - в Голливуде вверх тормашками / Buster Keaton - Head Over Heels in Hollywood
Страна: США
Жанр: документальный
Год выпуска: 2008
Продолжительность: 00:09:00
Перевод: одноголосый закадровый - fiendover (Виктор Рутилов)
Cубтитры: нет
Оригинальная аудиодорожка: английская
Режиссер: Джон Корк / John Cork
Описание: Короткометражный документальный фильм о Бастере Китоне, снятый студией "20 век Фокс" в 2008 году и помещённый на DVD с фильмом "Голливудская кавалькада" в качестве дополнительного материала.
БОЛЬШОЕ СПАСИБО:
За исходный DVD - http://teatrix.ru/viewtopic.php?t=4799622 - Магда
Оригинальный DVD - erfv
Работа со звуком и реавторинг DVD - tanda2007
Перевод и озвучивание - fiendover (Виктор Рутилов)А также Большое Спасибо всем, кто помог появлению перевода и озвучки:
Магда, jasenka, елена 22, erfv, HippopotamusIV, lafajet, surzhoks, voostorg,
keg38, yanaelisa, борюська, atomic dragonfly, leoder, sveta_pula, mumzik69

Сэмпл: http://multi-up.com/993553
Качество видео: DVDRip
Формат видео: AVI
Видео: 720x400 (1.80:1), 23.976 fps, XviD build 73 ~1545 kbps avg, 0.22 bit/pixel
Аудио 1: 48 kHz, AC3 Dolby Digital, 2/0 (L,R) ch, ~192 kbps (русский одноголосый закадровый перевод) - fiendover
Аудио 2: 48 kHz, AC3 Dolby Digital, 2/0 (L,R) ch, ~192 kbps (оригинальная английская звуковая дорожка)

MediaInfo

General
Complete name : ... \Buster Keaton - Head Over Heels in Hollywood.avi
Format : AVI
Format/Info : Audio Video Interleave
File size : 125 MiB
Duration : 9mn 0s
Overall bit rate : 1 944 Kbps
Writing application : VirtualDubMod 1.5.10.3 | www.virtualdub-fr.org || (build 2550/release)
Writing library : VirtualDubMod build 2550/release
Video
ID : 0
Format : MPEG-4 Visual
Format profile : Advanced Simple@L5
Format settings, BVOP : 2
Format settings, QPel : No
Format settings, GMC : No warppoints
Format settings, Matrix : Default (H.263)
Codec ID : DX50
Codec ID/Hint : DivX 5
Duration : 9mn 0s
Bit rate : 1 546 Kbps
Width : 720 pixels
Height : 400 pixels
Display aspect ratio : 16:9
Frame rate : 23.976 fps
Color space : YUV
Chroma subsampling : 4:2:0
Bit depth : 8 bits
Scan type : Progressive
Compression mode : Lossy
Bits/(Pixel*Frame) : 0.224
Stream size : 99.6 MiB (80%)
Writing library : XviD 73
Audio #1
ID : 1
Format : AC-3
Format/Info : Audio Coding 3
Mode extension : CM (complete main)
Format settings, Endianness : Big
Codec ID : 2000
Duration : 9mn 0s
Bit rate mode : Constant
Bit rate : 192 Kbps
Channel(s) : 2 channels
Channel positions : Front: L R
Sampling rate : 48.0 KHz
Bit depth : 16 bits
Compression mode : Lossy
Stream size : 12.4 MiB (10%)
Alignment : Split accross interleaves
Interleave, duration : 42 ms (1.00 video frame)
Interleave, preload duration : 500 ms
Audio #2
ID : 2
Format : AC-3
Format/Info : Audio Coding 3
Mode extension : CM (complete main)
Format settings, Endianness : Big
Codec ID : 2000
Duration : 9mn 0s
Bit rate mode : Constant
Bit rate : 192 Kbps
Channel(s) : 2 channels
Channel positions : Front: L R
Sampling rate : 48.0 KHz
Bit depth : 16 bits
Compression mode : Lossy
Stream size : 12.4 MiB (10%)
Alignment : Split accross interleaves
Interleave, duration : 42 ms (1.00 video frame)
Interleave, preload duration : 500 ms

Скриншоты

[teatrix.ru].t19015.torrent 
Торрент: Зарегистрирован [ 2016-03-18 12:38 ] · B14DDFF1BB94DC4AF38F6ECED5CD70EBD3CC1518

Скачать .torrent

Скачать

20 KB

Статус: проверено
Скачан: 0 раз
Размер: 125 MB
terms.php



Показать сообщения:    

Текущее время: 07-Дек 15:29

Часовой пояс: UTC + 3


Вы не можете начинать темы
Вы не можете отвечать на сообщения
Вы не можете редактировать свои сообщения
Вы не можете удалять свои сообщения
Вы не можете голосовать в опросах
Вы не можете прикреплять файлы к сообщениям
Вы можете скачивать файлы