(Classical) Claudio Monteverdi - Combattimento di Tancredi e Clorinda ed altri madrigali e canzonette - Ensemble "Concerto", Roberto Gini - 2007, FLAC (image+.cue) lossless


 

[Цитировать]

Claudio Monteverdi - Combattimento di Tancredi e Clorinda ed altri madrigali e canzonette - Ensemble "Concerto", Roberto Gini
Жанр: Classical
Страна-производитель диска: Italy
Год издания диска: 2007
Издатель (лейбл): Tactus
Номер по каталогу: TC 561301
Дата записи: 1987
Аудиокодек: FLAC
Тип рипа: image+.cue
Битрейт аудио: lossless
Продолжительность: 56:39
Источник: собственный рип
Наличие сканов в содержимом раздачи: да
Треклист:
Claudio Monteverdi (1567-1643)
[1] Settimo Libro dei Madrigali (1619): Tempro la cetra
à voce sola con sinfonie
[2] Scherzi Musicali (1632): Quel squardo sdegnosetto
ciacona à canto solo
[3] Settimo Libro dei Madrigali (1619): Interrotte speranze
à doi tenori
[4] Nono Libro dei Madrigali (1651): Bel Pastore
Ritornello de la Maddalena
à 2, canto e tenore
[5] Settimo Libro dei Madrigali (1619): Con che soavità
à una voce e 9 instrumenti
[6] Scherzi Musicali (1632): Et è pur dunque vero
aria à voce sola con Sinfonie
[7] Ottavo Libro dei Madrigali (1638): Combattimento di Tancredi e Clorinda
rappresentativo con quattro Viole parole del Sig.Torquato Tasso
Исполнители:
Ensemble "Concerto"
Roberto Gini

Лог создания рипа

Exact Audio Copy V1.0 beta 3 from 29. August 2011
EAC extraction logfile from 17. August 2014, 17:25
Ensemble Concerto, Roberto Gini / Monteverdi - Combattimento di Tancredi e Clorinda
Used drive : HL-DT-STDVDRAM GU70N Adapter: 0 ID: 0
Read mode : Secure
Utilize accurate stream : Yes
Defeat audio cache : Yes
Make use of C2 pointers : No
Read offset correction : 48
Overread into Lead-In and Lead-Out : No
Fill up missing offset samples with silence : Yes
Delete leading and trailing silent blocks : No
Null samples used in CRC calculations : Yes
Used interface : Native Win32 interface for Win NT & 2000
Used output format : User Defined Encoder
Selected bitrate : 128 kBit/s
Quality : High
Add ID3 tag : No
Command line compressor : C:\Program Files (x86)\Exact Audio Copy\Flac\flac.exe
Additional command line options : -V -8 -T "Date=%year%" -T "Genre=%genre%" %source%
TOC of the extracted CD
Track | Start | Length | Start sector | End sector
---------------------------------------------------------
1 | 0:00.00 | 10:34.48 | 0 | 47597
2 | 10:34.48 | 2:17.65 | 47598 | 57937
3 | 12:52.38 | 4:12.27 | 57938 | 76864
4 | 17:04.65 | 5:35.43 | 76865 | 102032
5 | 22:40.33 | 4:59.32 | 102033 | 124489
6 | 27:39.65 | 8:13.03 | 124490 | 161467
7 | 35:52.68 | 20:49.70 | 161468 | 255212
Range status and errors
Selected range
Filename C:\temp\Monteverdi - Combattimento di Tancredi e Clorinda\Monteverdi - Combattimento di Tancredi e Clorinda.wav
Peak level 87.8 %
Extraction speed 2.0 X
Range quality 100.0 %
Test CRC 4CCF8D1B
Copy CRC 4CCF8D1B
Copy OK
No errors occurred
AccurateRip summary
Track 1 accurately ripped (confidence 2) [09D3C018] (AR v2)
Track 2 accurately ripped (confidence 2) [51CA81C4] (AR v2)
Track 3 accurately ripped (confidence 2) [336BA922] (AR v2)
Track 4 accurately ripped (confidence 2) [8B4C6C2C] (AR v2)
Track 5 accurately ripped (confidence 2) [55E86A69] (AR v2)
Track 6 accurately ripped (confidence 2) [DE0E09DA] (AR v2)
Track 7 accurately ripped (confidence 2) [92CC7ECB] (AR v2)
All tracks accurately ripped
End of status report
==== Log checksum 713225F4F464B495FC4046AA3AC7CA1CB7BA5CFA73DCE6033A72AC84A368D5C8 ====



Показать сообщения:    

Текущее время: 04-Дек 04:59

Часовой пояс: UTC + 3


Вы не можете начинать темы
Вы не можете отвечать на сообщения
Вы не можете редактировать свои сообщения
Вы не можете удалять свои сообщения
Вы не можете голосовать в опросах
Вы не можете прикреплять файлы к сообщениям
Вы не можете скачивать файлы