(Classical) Claudio Monteverdi - Madrigali in genere rappresentativo - Ensemble "Concerto", Roberto Gini - 2006, FLAC (image+.cue) lossless


 

[Цитировать]

Claudio Monteverdi - Madrigali in genere rappresentativo - Ensemble "Concerto", Roberto Gini
Жанр: Classical
Страна-производитель диска: Italy
Год издания диска: 2006
Издатель (лейбл): Tactus
Номер по каталогу: TC 561302
Дата записи: 1988
Аудиокодек: FLAC
Тип рипа: image+.cue
Битрейт аудио: lossless
Продолжительность: 62:39
Источник: собственный рип
Наличие сканов в содержимом раздачи: да
Треклист:
Claudio Monteverdi (1567-1643)
[1] Se i languidi miei sguardi 8:47
Lettera amorosa à voce sola
cantata da Cettina Cadelo
[2] Il Ballo delle Ingrate 36:40
[3] Il Lamento della Ninfa 7:23
[4] Se pur destina 9:49
Partenza Amorora à voce sola
cantata da Vincenzo Manno
Исполнители:
Ensemble "Concerto"
Roberto Gini

Лог создания рипа

Exact Audio Copy V1.0 beta 3 from 29. August 2011
EAC extraction logfile from 17. August 2014, 18:37
Ensemble Concerto, Roberto Gini / Monteverdi - Madrigali in genere rappresentativo
Used drive : HL-DT-STDVDRAM GU70N Adapter: 0 ID: 0
Read mode : Secure
Utilize accurate stream : Yes
Defeat audio cache : Yes
Make use of C2 pointers : No
Read offset correction : 48
Overread into Lead-In and Lead-Out : No
Fill up missing offset samples with silence : Yes
Delete leading and trailing silent blocks : No
Null samples used in CRC calculations : Yes
Used interface : Native Win32 interface for Win NT & 2000
Used output format : User Defined Encoder
Selected bitrate : 128 kBit/s
Quality : High
Add ID3 tag : No
Command line compressor : C:\Program Files (x86)\Exact Audio Copy\Flac\flac.exe
Additional command line options : -V -8 -T "Date=%year%" -T "Genre=%genre%" %source%
TOC of the extracted CD
Track | Start | Length | Start sector | End sector
---------------------------------------------------------
1 | 0:00.00 | 8:54.15 | 0 | 40064
2 | 8:54.15 | 36:48.35 | 40065 | 205699
3 | 45:42.50 | 7:29.52 | 205700 | 239426
4 | 53:12.27 | 9:50.33 | 239427 | 283709
Range status and errors
Selected range
Filename C:\temp\Monteverdi - Madrigali in genere rappresentativo\Monteverdi - Madrigali in genere rappresentativo.wav
Peak level 79.0 %
Extraction speed 2.1 X
Range quality 99.9 %
Test CRC 841A65D5
Copy CRC 841A65D5
Copy OK
No errors occurred
AccurateRip summary
Track 1 accurately ripped (confidence 2) [204D8AC7] (AR v2)
Track 2 accurately ripped (confidence 2) [EB9C4BD9] (AR v2)
Track 3 accurately ripped (confidence 2) [FE4ECC7F] (AR v2)
Track 4 accurately ripped (confidence 2) [646D8A56] (AR v2)
All tracks accurately ripped
End of status report
==== Log checksum 814CF2E1A63DF566471B3D526AF031C7082160A41BB58CBC4219F0D69F053EE0 ====



Показать сообщения:    

Текущее время: 05-Дек 13:33

Часовой пояс: UTC + 3


Вы не можете начинать темы
Вы не можете отвечать на сообщения
Вы не можете редактировать свои сообщения
Вы не можете удалять свои сообщения
Вы не можете голосовать в опросах
Вы не можете прикреплять файлы к сообщениям
Вы не можете скачивать файлы