(Classical) Claudio Monteverdi - Madrigali sui testi del Tasso - Concerto Italiano, Rinaldo Alessandrini - 2006, FLAC (image+.cue) lossless


 

[Цитировать]

Claudio Monteverdi - Madrigali sui testi del Tasso - Concerto Italiano, Rinaldo Alessandrini
Жанр: Classical
Страна-производитель диска: Italy
Год издания диска: 2006
Издатель (лейбл): Tactus
Номер по каталогу: TC 561303
Дата записи: 1989
Аудиокодек: FLAC
Тип рипа: image+.cue
Битрейт аудио: lossless
Продолжительность: 51:23
Источник: собственный рип
Наличие сканов в содержимом раздачи: да
Треклист:
Claudio Monteverdi (1567-1643)
Madrigali sui testi del Torquato Tasso
dal I, II, III e IV Libro dei Madrigali

Secondo Libro dei Madrigali (1590)
[1] Donna, nel mio ritorno
[2] S'andasse Amor a caccia
[3] Dolcemente dormiva la mia Clori
[4] Non si levava ancor l'alba novella
[5] E dicea l'una sospirando allora
Primo Libro dei Madrigali (1587)
[6] Ardo sì ma non t'amo
[7] Ardi e gela, risposta
[8] Arsi et alsi, controrisposta
Terzo Libro dei Madrigali (1592)
[9] Vivrò fra i miei tormenti
[10] Ma dove, o lasso me
[11] Io pur verro
Secondo Libro dei Madrigali (1590)
[12] Non sono in queste rive
[13] Se tu mi lassi
[14] Dolcissimi legami
[15] Mentr'io mirava fiso
Terzo Libro dei Madrigali (1592)
[16] Vattene pur, crudel
[17] Là tra 'l sangue e le morti
[18] Poich'ella in sè tornò
Quarto Libro dei Madrigali (1603)
[19] Piagn'e sospira
Исполнители:
Concerto Italiano
Rinaldo Alessandrini

Лог создания рипа

Exact Audio Copy V1.0 beta 3 from 29. August 2011
EAC extraction logfile from 19. August 2014, 2:39
Concerto Italiano, Rinaldo Alessandrini / Monteverdi - Madrigali sui testi del Tasso
Used drive : HL-DT-STDVDRAM GU70N Adapter: 0 ID: 0
Read mode : Secure
Utilize accurate stream : Yes
Defeat audio cache : Yes
Make use of C2 pointers : No
Read offset correction : 48
Overread into Lead-In and Lead-Out : No
Fill up missing offset samples with silence : Yes
Delete leading and trailing silent blocks : No
Null samples used in CRC calculations : Yes
Used interface : Native Win32 interface for Win NT & 2000
Used output format : User Defined Encoder
Selected bitrate : 128 kBit/s
Quality : High
Add ID3 tag : No
Command line compressor : C:\Program Files (x86)\Exact Audio Copy\Flac\flac.exe
Additional command line options : -V -8 -T "Date=%year%" -T "Genre=%genre%" %source%
TOC of the extracted CD
Track | Start | Length | Start sector | End sector
---------------------------------------------------------
1 | 0:00.00 | 3:20.55 | 0 | 15054
2 | 3:20.55 | 1:50.28 | 15055 | 23332
3 | 5:11.08 | 3:27.32 | 23333 | 38889
4 | 8:38.40 | 4:09.30 | 38890 | 57594
5 | 12:47.70 | 4:37.63 | 57595 | 78432
6 | 17:25.58 | 1:13.17 | 78433 | 83924
7 | 18:39.00 | 1:18.10 | 83925 | 89784
8 | 19:57.10 | 1:33.20 | 89785 | 96779
9 | 21:30.30 | 1:28.40 | 96780 | 103419
10 | 22:58.70 | 3:09.50 | 103420 | 117644
11 | 26:08.45 | 2:47.65 | 117645 | 130234
12 | 28:56.35 | 2:03.13 | 130235 | 139472
13 | 30:59.48 | 1:47.17 | 139473 | 147514
14 | 32:46.65 | 2:53.26 | 147515 | 160515
15 | 35:40.16 | 2:35.27 | 160516 | 172167
16 | 38:15.43 | 1:48.40 | 172168 | 180307
17 | 40:04.08 | 2:44.68 | 180308 | 192675
18 | 42:49.01 | 3:53.50 | 192676 | 210200
19 | 46:42.51 | 4:36.22 | 210201 | 230922
Range status and errors
Selected range
Filename C:\temp\Monteverdi - Madrigali sui testi del Tasso\Monteverdi - Madrigali sui testi del Tasso.wav
Peak level 65.9 %
Extraction speed 2.0 X
Range quality 99.9 %
Test CRC F76E4D2D
Copy CRC F76E4D2D
Copy OK
No errors occurred
AccurateRip summary
Track 1 accurately ripped (confidence 2) [951118BD] (AR v2)
Track 2 accurately ripped (confidence 2) [8E6DA40A] (AR v2)
Track 3 accurately ripped (confidence 2) [807B9CFE] (AR v2)
Track 4 accurately ripped (confidence 2) [C937324C] (AR v2)
Track 5 accurately ripped (confidence 2) [527D8AE2] (AR v2)
Track 6 accurately ripped (confidence 2) [F2673F02] (AR v2)
Track 7 accurately ripped (confidence 2) [D91BD303] (AR v2)
Track 8 accurately ripped (confidence 2) [F9CEDBC4] (AR v2)
Track 9 accurately ripped (confidence 2) [F181722B] (AR v2)
Track 10 accurately ripped (confidence 2) [ACFC9798] (AR v2)
Track 11 accurately ripped (confidence 2) [2FE3F224] (AR v2)
Track 12 accurately ripped (confidence 2) [0591D8EB] (AR v2)
Track 13 accurately ripped (confidence 2) [99D11F1E] (AR v2)
Track 14 accurately ripped (confidence 2) [5D89C31F] (AR v2)
Track 15 accurately ripped (confidence 2) [1C9EBDF0] (AR v2)
Track 16 accurately ripped (confidence 2) [6B793898] (AR v2)
Track 17 accurately ripped (confidence 2) [9C411906] (AR v2)
Track 18 accurately ripped (confidence 2) [303D161A] (AR v2)
Track 19 accurately ripped (confidence 2) [3A3C2E69] (AR v2)
All tracks accurately ripped
End of status report
==== Log checksum 62844EC177A9210337740F4A478AF3C41F50944283E55215B7482CDDECFA3A4C ====



Показать сообщения:    

Текущее время: 09-Дек 16:36

Часовой пояс: UTC + 3


Вы не можете начинать темы
Вы не можете отвечать на сообщения
Вы не можете редактировать свои сообщения
Вы не можете удалять свои сообщения
Вы не можете голосовать в опросах
Вы не можете прикреплять файлы к сообщениям
Вы не можете скачивать файлы