(20th Century, String Quartet) Дмитрий Дмитриевич Шостакович / Dmitri Shostakovich - Complete string quartets - Квартет имени Танеева / Taneyev Quartet - 6CD, 1968-1978, FLAC (tracks) lossless


 

[Цитировать]

Дмитрий Дмитриевич Шостакович / Dmitri Shostakovich - Complete string quartets - Квартет имени Танеева / Taneyev Quartet
Жанр: 20th Century, String Quartet
Страна-производитель диска: Россия
Год издания диска: 2005?
Издатель (лейбл): Aulos / Мелодия
Дата записи: 1968-1978
Аудиокодек: FLAC
Тип рипа: tracks
Битрейт аудио: lossless
Продолжительность: 50m 29s + 54m 6s + 70m 9s + 68m 57s + 56m 16s
Источник: скачано с internet
Наличие сканов в содержимом раздачи: да
Треклист:
CD 1
[1]-[4] String Quartet No. 1 in C major Op.49
[5]-[8] String Quartet No. 2 in A major Op.68
CD 2
[1]-[5] String Quartet No. 3 in F major Op.73
[6]-[10] String Quartet No. 4 in D major Op.83
CD 3
[1]-[3] String Quartet No. 5 in Bb major Op.92
[4]-[7] String Quartet No. 6 in G major Op.101
[8]-[10] String Quartet No. 7 in F# minor Op.108
CD 4
[1]-[5] String Quartet No. 8 in C minor Op.110
[6]-[10] String Quartet No. 9 in Eb major Op.117
[11]-[14] String Quartet No. 10 in Ab major Op.118
CD 5
[1]-[7] String Quartet No. 11 in F minor Op.122
[8]-[9] String Quartet No. 12 in Db major Op.133
[10] String Quartet No. 13 in Bb minor Op.138
CD 6
[1]-[3] String Quartet No. 14 in F# major Op.142
[4]-[9] String Quartet No. 15 in Eb minor Op.144
Исполнители:
The Taneyev Quartet (Квартет имени Танеева)
Vladimir Ovcharek (Владимир Овчарек) & Grigori Lutsky (Григорий Луцкий), violins
Vissarion Soloviev (Виссарион Соловьёв), viola
Josef Levinson (Иосиф Левинзон), cello

Содержание индексной карты (.CUE)

CD 1

TITLE "Shostakovich Complete String Quartets"
PERFORMER "Taneyev Quartet"
REM GENRE "Classical"
REM DISCNUMBER 1
REM TOTALDISCS 6
REM DISCID 820BD508
REM REPLAYGAIN_ALBUM_GAIN -1.23 dB
REM REPLAYGAIN_ALBUM_PEAK 0.920380
FILE "01. No.1 in C Major Op.49 - 1st mvt -Moderato.flac" WAVE
TRACK 01 AUDIO
TITLE "No.1 in C Major Op.49 - 1. Moderato"
PERFORMER "Dmitri Shostakovich"
REM COMMENT "No.1 in C Major Op.49 - 1st Moderato"
REM REPLAYGAIN_TRACK_GAIN 1.43 dB
REM REPLAYGAIN_TRACK_PEAK 0.712891
INDEX 01 00:00:00
FILE "02. No.1 in C Major Op.49 - 2nd mvt - Moderato.flac" WAVE
TRACK 02 AUDIO
TITLE "No.1 in C Major Op.49 - 2. Moderato"
PERFORMER "Dmitri Shostakovich"
REM COMMENT "No.1 in C Major Op.49 - 2nd Moderato"
REM REPLAYGAIN_TRACK_GAIN 0.76 dB
REM REPLAYGAIN_TRACK_PEAK 0.734161
INDEX 01 00:00:00
FILE "03. No.1 in C Major Op.49 - 3rd mvt - Allegro molto.flac" WAVE
TRACK 03 AUDIO
TITLE "No.1 in C Major Op.49 - 3. Allegro molto"
PERFORMER "Dmitri Shostakovich"
REM COMMENT "No.1 in C Major Op.49 - "
REM REPLAYGAIN_TRACK_GAIN 6.96 dB
REM REPLAYGAIN_TRACK_PEAK 0.370667
INDEX 01 00:00:00
FILE "04. No.1 in C Major Op.49 - 4th mvt - Allegro.flac" WAVE
TRACK 04 AUDIO
TITLE "No.1 in C Major Op.49 - 4. Allegro"
PERFORMER "Dmitri Shostakovich"
REM REPLAYGAIN_TRACK_GAIN -1.71 dB
REM REPLAYGAIN_TRACK_PEAK 0.920380
INDEX 01 00:00:00
FILE "05. No.2 in A Major Op.68 - 1st mvt - Overture - Moderato con moto.flac" WAVE
TRACK 05 AUDIO
TITLE "No.2 in A Major Op.68 - 1. Overture: Moderato con moto"
PERFORMER "Dmitri Shostakovich"
REM REPLAYGAIN_TRACK_GAIN -2.55 dB
REM REPLAYGAIN_TRACK_PEAK 0.886017
INDEX 01 00:00:00
FILE "06. No.2 in A Major Op.68 - 2nd mvt - Recitative and Romance - Adagio.flac" WAVE
TRACK 06 AUDIO
TITLE "No.2 in A Major Op.68 - 2. Recitative and Romance: Adagio"
PERFORMER "Dmitri Shostakovich"
REM REPLAYGAIN_TRACK_GAIN -0.14 dB
REM REPLAYGAIN_TRACK_PEAK 0.909943
INDEX 01 00:00:00
FILE "07. No.2 in A Major Op.68 - 3rd mvt - Waltz-Allegro.flac" WAVE
TRACK 07 AUDIO
TITLE "No.2 in A Major Op.68 - 3. Waltz: Allegro"
PERFORMER "Dmitri Shostakovich"
REM REPLAYGAIN_TRACK_GAIN 0.16 dB
REM REPLAYGAIN_TRACK_PEAK 0.804718
INDEX 01 00:00:00
FILE "08. No.2 in A Major Op.68 - 4th mvt - Theme with Variations - Adagio,Moderato con moto,Allegro non troppo ,Adagio.flac" WAVE
TRACK 08 AUDIO
TITLE "No.2 in A Major Op.68 - 4. Theme with Variations: Adagio, Moderato con moto, Allegro non troppo, Adagio"
PERFORMER "Dmitri Shostakovich"
REM REPLAYGAIN_TRACK_GAIN -1.98 dB
REM REPLAYGAIN_TRACK_PEAK 0.881561
INDEX 01 00:00:00

CD 2

TITLE "Shostakovich Complete String Quartets"
PERFORMER "Taneyev Quartet"
REM GENRE "Classical"
REM DISCNUMBER 2
REM TOTALDISCS 6
REM DISCID 7C0CAE09
REM REPLAYGAIN_ALBUM_GAIN -2.72 dB
REM REPLAYGAIN_ALBUM_PEAK 0.958527
FILE "01. No.3 mvt.1.flac" WAVE
TRACK 01 AUDIO
TITLE "No.3 in F major Op.73 - 1. Allegretto"
PERFORMER "Dmitri Shostakovich"
REM REPLAYGAIN_TRACK_GAIN -2.53 dB
REM REPLAYGAIN_TRACK_PEAK 0.921265
INDEX 01 00:00:00
FILE "02. No.3 mvt.2.flac" WAVE
TRACK 02 AUDIO
TITLE "No.3 in F major Op.73 - 2. Moderato con moto"
PERFORMER "Dmitri Shostakovich"
REM REPLAYGAIN_TRACK_GAIN -2.36 dB
REM REPLAYGAIN_TRACK_PEAK 0.891052
INDEX 01 00:00:00
FILE "03. No.3 mvt.3.flac" WAVE
TRACK 03 AUDIO
TITLE "No.3 in F major Op.73 - 3. Allegro non troppo"
PERFORMER "Dmitri Shostakovich"
REM REPLAYGAIN_TRACK_GAIN -5.71 dB
REM REPLAYGAIN_TRACK_PEAK 0.958527
INDEX 01 00:00:00
FILE "04. No.3 mvt.4.flac" WAVE
TRACK 04 AUDIO
TITLE "No.3 in F major Op.73 - 4. Adagio"
PERFORMER "Dmitri Shostakovich"
REM REPLAYGAIN_TRACK_GAIN -1.51 dB
REM REPLAYGAIN_TRACK_PEAK 0.715576
INDEX 01 00:00:00
FILE "05. No.3 mvt.5.flac" WAVE
TRACK 05 AUDIO
TITLE "No.3 in F major Op.73 - 5. Moderato"
PERFORMER "Dmitri Shostakovich"
REM REPLAYGAIN_TRACK_GAIN -2.20 dB
REM REPLAYGAIN_TRACK_PEAK 0.863373
INDEX 01 00:00:00
FILE "06. No.4 mvt.1.flac" WAVE
TRACK 06 AUDIO
TITLE "No.4 in D major Op.83 - 1. Allegretto"
PERFORMER "Dmitri Shostakovich"
REM REPLAYGAIN_TRACK_GAIN -3.38 dB
REM REPLAYGAIN_TRACK_PEAK 0.700409
INDEX 01 00:00:00
FILE "07. No.4 mvt.2.flac" WAVE
TRACK 07 AUDIO
TITLE "No.4 in D major Op.83 - 2. Andantino"
PERFORMER "Dmitri Shostakovich"
REM REPLAYGAIN_TRACK_GAIN -0.43 dB
REM REPLAYGAIN_TRACK_PEAK 0.601837
INDEX 01 00:00:00
FILE "08. No.4 mvt.3.flac" WAVE
TRACK 08 AUDIO
TITLE "No.4 in D major Op.83 - 3. Allegretto"
PERFORMER "Dmitri Shostakovich"
REM REPLAYGAIN_TRACK_GAIN 3.89 dB
REM REPLAYGAIN_TRACK_PEAK 0.446259
INDEX 01 00:00:00
FILE "09. No.4 mvt.4.flac" WAVE
TRACK 09 AUDIO
TITLE "No.4 in D major Op.83 - 4. Allegretto"
PERFORMER "Dmitri Shostakovich"
REM REPLAYGAIN_TRACK_GAIN -2.75 dB
REM REPLAYGAIN_TRACK_PEAK 0.755463
INDEX 01 00:00:00

CD 3

TITLE "Shostakovich Complete String Quartets"
PERFORMER "Taneyev Quartet"
REM GENRE "Classical"
REM DISCNUMBER 3
REM TOTALDISCS 6
REM DISCID AA10710A
REM REPLAYGAIN_ALBUM_GAIN -1.33 dB
REM REPLAYGAIN_ALBUM_PEAK 0.988525
FILE "01. No.5 mvt.1.flac" WAVE
TRACK 01 AUDIO
TITLE "No.5 in Bb major Op.92 - 1. Allegro non troppo"
PERFORMER "Dmitri Shostakovich"
REM REPLAYGAIN_TRACK_GAIN -3.00 dB
REM REPLAYGAIN_TRACK_PEAK 0.916626
INDEX 01 00:00:00
FILE "02. No.5 mvt.2.flac" WAVE
TRACK 02 AUDIO
TITLE "No.5 in Bb major Op.92 - 2. Andante"
PERFORMER "Dmitri Shostakovich"
REM REPLAYGAIN_TRACK_GAIN 9.06 dB
REM REPLAYGAIN_TRACK_PEAK 0.398468
INDEX 01 00:00:00
FILE "03. No.5 mvt.3.flac" WAVE
TRACK 03 AUDIO
TITLE "No.5 in Bb major Op.92 - 3. Moderato, Allegretto"
PERFORMER "Dmitri Shostakovich"
REM REPLAYGAIN_TRACK_GAIN -1.29 dB
REM REPLAYGAIN_TRACK_PEAK 0.891754
INDEX 01 00:00:00
FILE "04. No.6 mvt.1.flac" WAVE
TRACK 04 AUDIO
TITLE "No.6 in G major Op.101 - 1. Allegretto"
PERFORMER "Dmitri Shostakovich"
REM REPLAYGAIN_TRACK_GAIN -3.17 dB
REM REPLAYGAIN_TRACK_PEAK 0.988525
INDEX 01 00:00:00
FILE "05. No.6 mvt.2.flac" WAVE
TRACK 05 AUDIO
TITLE "No.6 in G major Op.101 - 2. Moderato con moto"
PERFORMER "Dmitri Shostakovich"
REM REPLAYGAIN_TRACK_GAIN 3.15 dB
REM REPLAYGAIN_TRACK_PEAK 0.437531
INDEX 01 00:00:00
FILE "06. No.6 mvt.3.flac" WAVE
TRACK 06 AUDIO
TITLE "No.6 in G major Op.101 - 3. Lento"
PERFORMER "Dmitri Shostakovich"
REM REPLAYGAIN_TRACK_GAIN 6.10 dB
REM REPLAYGAIN_TRACK_PEAK 0.434052
INDEX 01 00:00:00
FILE "07. No.6 mvt.4.flac" WAVE
TRACK 07 AUDIO
TITLE "No.6 in G major Op.101 - 4. Lento, Allegretto"
PERFORMER "Dmitri Shostakovich"
REM REPLAYGAIN_TRACK_GAIN -2.50 dB
REM REPLAYGAIN_TRACK_PEAK 0.776733
INDEX 01 00:00:00
FILE "08. No.7 mvt.1.flac" WAVE
TRACK 08 AUDIO
TITLE "No.7 in F# minor Op.108 - 1. Allegretto"
PERFORMER "Dmitri Shostakovich"
REM REPLAYGAIN_TRACK_GAIN 2.90 dB
REM REPLAYGAIN_TRACK_PEAK 0.516541
INDEX 01 00:00:00
FILE "09. No.7 mvt.2.flac" WAVE
TRACK 09 AUDIO
TITLE "No.7 in F# minor Op.108 - 2. Lento"
PERFORMER "Dmitri Shostakovich"
REM REPLAYGAIN_TRACK_GAIN 12.64 dB
REM REPLAYGAIN_TRACK_PEAK 0.177673
INDEX 01 00:00:00
FILE "10. No.7 mvt.3.flac" WAVE
TRACK 10 AUDIO
TITLE "No.7 in F# minor Op.108 - 3. Allegro, Allegretto"
PERFORMER "Dmitri Shostakovich"
REM REPLAYGAIN_TRACK_GAIN -1.93 dB
REM REPLAYGAIN_TRACK_PEAK 0.920685
INDEX 01 00:00:00

CD 4

TITLE "Shostakovich Complete String Quartets"
PERFORMER "Taneyev Quartet"
REM GENRE "Classical"
REM DISCNUMBER 4
REM TOTALDISCS 6
REM DISCID CA10290E
REM REPLAYGAIN_ALBUM_GAIN -1.44 dB
REM REPLAYGAIN_ALBUM_PEAK 0.918213
FILE "01. No.8 mvt.1.flac" WAVE
TRACK 01 AUDIO
TITLE "No.8 in C minor Op.110 - 1. Largo"
PERFORMER "Dmitri Shostakovich"
REM REPLAYGAIN_TRACK_GAIN 5.58 dB
REM REPLAYGAIN_TRACK_PEAK 0.474274
INDEX 01 00:00:00
FILE "02. No.8 mvt.2.flac" WAVE
TRACK 02 AUDIO
TITLE "No.8 in C minor Op.110 - 2. Allegro molto"
PERFORMER "Dmitri Shostakovich"
REM REPLAYGAIN_TRACK_GAIN -5.86 dB
REM REPLAYGAIN_TRACK_PEAK 0.900391
INDEX 01 00:00:00
FILE "03. No.8 mvt.3.flac" WAVE
TRACK 03 AUDIO
TITLE "No.8 in C minor Op.110 - 3. Allegretto"
PERFORMER "Dmitri Shostakovich"
REM REPLAYGAIN_TRACK_GAIN -0.59 dB
REM REPLAYGAIN_TRACK_PEAK 0.843079
INDEX 01 00:00:00
FILE "04. No.8 mvt.4.flac" WAVE
TRACK 04 AUDIO
TITLE "No.8 in C minor Op.110 - 4. Largo"
PERFORMER "Dmitri Shostakovich"
REM REPLAYGAIN_TRACK_GAIN 0.04 dB
REM REPLAYGAIN_TRACK_PEAK 0.883606
INDEX 01 00:00:00
FILE "05. No.8 mvt.5.flac" WAVE
TRACK 05 AUDIO
TITLE "No.8 in C minor Op.110 - 5. Largo"
PERFORMER "Dmitri Shostakovich"
REM REPLAYGAIN_TRACK_GAIN 3.22 dB
REM REPLAYGAIN_TRACK_PEAK 0.548401
INDEX 01 00:00:00
FILE "06. No.9 mvt.1.flac" WAVE
TRACK 06 AUDIO
TITLE "No.9 in Eb major Op.117 - 1. Moderato con moto"
PERFORMER "Dmitri Shostakovich"
REM REPLAYGAIN_TRACK_GAIN 3.46 dB
REM REPLAYGAIN_TRACK_PEAK 0.868469
INDEX 01 00:00:00
FILE "07. No.9 mvt.2.flac" WAVE
TRACK 07 AUDIO
TITLE "No.9 in Eb major Op.117 - 2. Adagio"
PERFORMER "Dmitri Shostakovich"
REM REPLAYGAIN_TRACK_GAIN 2.25 dB
REM REPLAYGAIN_TRACK_PEAK 0.463409
INDEX 01 00:00:00
FILE "08. No.9 mvt.3.flac" WAVE
TRACK 08 AUDIO
TITLE "No.9 in Eb major Op.117 - 3. Allegretto"
PERFORMER "Dmitri Shostakovich"
REM REPLAYGAIN_TRACK_GAIN 0.57 dB
REM REPLAYGAIN_TRACK_PEAK 0.757111
INDEX 01 00:00:00
FILE "09. No.9 mvt.4.flac" WAVE
TRACK 09 AUDIO
TITLE "No.9 in Eb major Op.117 - 4. Adagio"
PERFORMER "Dmitri Shostakovich"
REM REPLAYGAIN_TRACK_GAIN 2.38 dB
REM REPLAYGAIN_TRACK_PEAK 0.702271
INDEX 01 00:00:00
FILE "10. No.9 mvt.5.flac" WAVE
TRACK 10 AUDIO
TITLE "No.9 in Eb major Op.117 - 5. Allegro"
PERFORMER "Dmitri Shostakovich"
REM REPLAYGAIN_TRACK_GAIN -1.72 dB
REM REPLAYGAIN_TRACK_PEAK 0.855194
INDEX 01 00:00:00
FILE "11. No.10 mvt.1.flac" WAVE
TRACK 11 AUDIO
TITLE "No.10 in Ab major Op.118 - 1. Andante"
PERFORMER "Dmitri Shostakovich"
REM REPLAYGAIN_TRACK_GAIN 9.66 dB
REM REPLAYGAIN_TRACK_PEAK 0.291321
INDEX 01 00:00:00
FILE "12. No.10 mvt.2.flac" WAVE
TRACK 12 AUDIO
TITLE "No.10 in Ab major Op.118 - 2. Allegretto furioso"
PERFORMER "Dmitri Shostakovich"
REM REPLAYGAIN_TRACK_GAIN -4.28 dB
REM REPLAYGAIN_TRACK_PEAK 0.918213
INDEX 01 00:00:00
FILE "13. No.10 mvt.3.flac" WAVE
TRACK 13 AUDIO
TITLE "No.10 in Ab major Op.118 - 3. Adagio"
PERFORMER "Dmitri Shostakovich"
REM REPLAYGAIN_TRACK_GAIN 5.20 dB
REM REPLAYGAIN_TRACK_PEAK 0.556610
INDEX 01 00:00:00
FILE "14. No.10 mvt.4.flac" WAVE
TRACK 14 AUDIO
TITLE "No.10 in Ab major Op.118 - 4. Allegretto"
PERFORMER "Dmitri Shostakovich"
REM REPLAYGAIN_TRACK_GAIN -0.74 dB
REM REPLAYGAIN_TRACK_PEAK 0.914612
INDEX 01 00:00:00

CD 5

TITLE "Shostakovich Complete String Quartets"
PERFORMER "Taneyev Quartet"
REM GENRE "Classical"
REM DISCNUMBER 5
REM TOTALDISCS 6
REM DISCID 780D310A
REM REPLAYGAIN_ALBUM_GAIN -0.40 dB
REM REPLAYGAIN_ALBUM_PEAK 0.900970
FILE "01. No.11 mvt.1.flac" WAVE
TRACK 01 AUDIO
TITLE "No.11 in F minor Op.122 - 1. Introduction: Andantino"
PERFORMER "Dmitri Shostakovich"
REM REPLAYGAIN_TRACK_GAIN 7.74 dB
REM REPLAYGAIN_TRACK_PEAK 0.472473
INDEX 01 00:00:00
FILE "02. No.11 mvt.2.flac" WAVE
TRACK 02 AUDIO
TITLE "No.11 in F minor Op.122 - 2. Scherzo: Allegretto"
PERFORMER "Dmitri Shostakovich"
REM REPLAYGAIN_TRACK_GAIN 6.90 dB
REM REPLAYGAIN_TRACK_PEAK 0.274384
INDEX 01 00:00:00
FILE "03. No.11 mvt.3.flac" WAVE
TRACK 03 AUDIO
TITLE "No.11 in F minor Op.122 - 3. Recitative: Adagio"
PERFORMER "Dmitri Shostakovich"
REM REPLAYGAIN_TRACK_GAIN -0.44 dB
REM REPLAYGAIN_TRACK_PEAK 0.745483
INDEX 01 00:00:00
FILE "04. No.11 mvt.4.flac" WAVE
TRACK 04 AUDIO
TITLE "No.11 in F minor Op.122 - 4. Etude: Allegro"
PERFORMER "Dmitri Shostakovich"
REM REPLAYGAIN_TRACK_GAIN -2.80 dB
REM REPLAYGAIN_TRACK_PEAK 0.870056
INDEX 01 00:00:00
FILE "05. No.11 mvt.5.flac" WAVE
TRACK 05 AUDIO
TITLE "No.11 in F minor Op.122 - 5. Humoreske: Allegro"
PERFORMER "Dmitri Shostakovich"
REM REPLAYGAIN_TRACK_GAIN -3.90 dB
REM REPLAYGAIN_TRACK_PEAK 0.863586
INDEX 01 00:00:00
FILE "06. No.11 mvt.6.flac" WAVE
TRACK 06 AUDIO
TITLE "No.11 in F minor Op.122 - 6. Elegy: Adagio"
PERFORMER "Dmitri Shostakovich"
REM REPLAYGAIN_TRACK_GAIN 2.25 dB
REM REPLAYGAIN_TRACK_PEAK 0.492249
INDEX 01 00:00:00
FILE "07. No.11 mvt.7.flac" WAVE
TRACK 07 AUDIO
TITLE "No.11 in F minor Op.122 - 7. Conclusion: Moderato"
PERFORMER "Dmitri Shostakovich"
REM REPLAYGAIN_TRACK_GAIN 10.19 dB
REM REPLAYGAIN_TRACK_PEAK 0.373230
INDEX 01 00:00:00
FILE "08. No.12 mvt.1.flac" WAVE
TRACK 08 AUDIO
TITLE "No.12 in Db major Op.133 - 1. Moderato, Allegretto"
PERFORMER "Dmitri Shostakovich"
REM REPLAYGAIN_TRACK_GAIN 1.11 dB
REM REPLAYGAIN_TRACK_PEAK 0.803955
INDEX 01 00:00:00
FILE "09. No.12 mvt.2.flac" WAVE
TRACK 09 AUDIO
TITLE "No.12 in Db major Op.133 - 2. Allegretto"
PERFORMER "Dmitri Shostakovich"
REM REPLAYGAIN_TRACK_GAIN -1.83 dB
REM REPLAYGAIN_TRACK_PEAK 0.900970
INDEX 01 00:00:00
FILE "10. No.13.flac" WAVE
TRACK 10 AUDIO
TITLE "No.13 in Bb minor Op.138 - Adagio"
PERFORMER "Dmitri Shostakovich"
REM REPLAYGAIN_TRACK_GAIN 0.80 dB
REM REPLAYGAIN_TRACK_PEAK 0.890381
INDEX 01 00:00:00

CD 6

TITLE "Shostakovich Complete String Quartets"
PERFORMER "Taneyev Quartet"
REM GENRE "Classical"
REM DATE "1975"
REM DISCNUMBER 6
REM TOTALDISCS 6
REM DISCID 7F0EA309
REM REPLAYGAIN_ALBUM_GAIN -0.44 dB
REM REPLAYGAIN_ALBUM_PEAK 0.988525
FILE "01. Quartet No. 14 for Two Violins, Viola and Cello in F sharp major, Op. 142 (Allegretto).flac" WAVE
TRACK 01 AUDIO
TITLE "No.14 in F# major Op.142 - 1. Allegretto"
PERFORMER "Dmitri Shostakovich"
REM REPLAYGAIN_TRACK_GAIN -2.22 dB
REM REPLAYGAIN_TRACK_PEAK 0.914795
INDEX 01 00:00:00
FILE "02. Quartet No. 14 for Two Violins, Viola and Cello in F sharp major, Op. 142(Adagio).flac" WAVE
TRACK 02 AUDIO
TITLE "No.14 in F# major Op.142 - 2. Adagio"
PERFORMER "Dmitri Shostakovich"
REM REPLAYGAIN_TRACK_GAIN 2.11 dB
REM REPLAYGAIN_TRACK_PEAK 0.666901
INDEX 01 00:00:00
FILE "03. Quartet No. 14 for Two Violins, Viola and Cello in F sharp major, Op. 142 (Allegretto).flac" WAVE
TRACK 03 AUDIO
TITLE "No.14 in F# major Op.142 - 3. Allegretto"
PERFORMER "Dmitri Shostakovich"
REM REPLAYGAIN_TRACK_GAIN -0.71 dB
REM REPLAYGAIN_TRACK_PEAK 0.942749
INDEX 01 00:00:00
FILE "04. Quartet No. 15 for Two Violins, Viola and Cello in E flat minor, Op. 144 (Elegy. Adagio).flac" WAVE
TRACK 04 AUDIO
TITLE "No.15 in Eb minor Op.144 - 1. Elegy: Adagio"
PERFORMER "Dmitri Shostakovich"
REM REPLAYGAIN_TRACK_GAIN 6.22 dB
REM REPLAYGAIN_TRACK_PEAK 0.358124
INDEX 01 00:00:00
FILE "05. Quartet No. 15 for Two Violins, Viola and Cello in E flat minor, Op. 144 (Serenade. Adagio).flac" WAVE
TRACK 05 AUDIO
TITLE "No.15 in Eb minor Op.144 - 2. Serenade: Adagio"
PERFORMER "Dmitri Shostakovich"
REM REPLAYGAIN_TRACK_GAIN 0.66 dB
REM REPLAYGAIN_TRACK_PEAK 0.988525
INDEX 01 00:00:00
FILE "06. Quartet No. 15 for Two Violins, Viola and Cello in E flat minor, Op. 144 (Intermezzo. Adagio).flac" WAVE
TRACK 06 AUDIO
TITLE "No.15 in Eb minor Op.144 - 3. Intermezzo: Adagio"
PERFORMER "Dmitri Shostakovich"
REM REPLAYGAIN_TRACK_GAIN -5.56 dB
REM REPLAYGAIN_TRACK_PEAK 0.929626
INDEX 01 00:00:00
FILE "07. Quartet No. 15 for Two Violins, Viola and Cello in E flat minor, Op. 144 (Nocturne. Adagio).flac" WAVE
TRACK 07 AUDIO
TITLE "No.15 in Eb minor Op.144 - 4. Nocturne: Adagio"
PERFORMER "Dmitri Shostakovich"
REM REPLAYGAIN_TRACK_GAIN 3.37 dB
REM REPLAYGAIN_TRACK_PEAK 0.680542
INDEX 01 00:00:00
FILE "08. Quartet No. 15 for Two Violins, Viola and Cello in E flat minor, Op. 144 (Funeral March. Adagio molto).flac" WAVE
TRACK 08 AUDIO
TITLE "No.15 in Eb minor Op.144 - 5. Funeral March: Adagio molto"
PERFORMER "Dmitri Shostakovich"
REM REPLAYGAIN_TRACK_GAIN -3.82 dB
REM REPLAYGAIN_TRACK_PEAK 0.927216
INDEX 01 00:00:00
FILE "09. Quartet No. 15 for Two Violins, Viola and Cello in E flat minor, Op. 144 (Epilogue. Adagio).flac" WAVE
TRACK 09 AUDIO
TITLE "No.15 in Eb minor Op.144 - 6. Epilogue: Adagio"
PERFORMER "Dmitri Shostakovich"
REM REPLAYGAIN_TRACK_GAIN -0.92 dB
REM REPLAYGAIN_TRACK_PEAK 0.983368
INDEX 01 00:00:00

Лог проверки качества

CD 1

X Lossless Decoder version 20140504 (147.0)
XLD AccurateRip checking logfile
TOC of the selected file
Track | Start | Length | Start sector | End sector
---------------------------------------------------------
1 | 00:00:00 | 04:43:18 | 0 | 21242
2 | 04:43:18 | 04:34:02 | 21243 | 41794
3 | 09:17:20 | 01:58:59 | 41795 | 50703
4 | 11:16:04 | 03:03:32 | 50704 | 64460
5 | 14:19:36 | 08:15:20 | 64461 | 101605
6 | 22:34:56 | 10:39:06 | 101606 | 149536
7 | 33:13:62 | 06:21:62 | 149537 | 178173
8 | 39:35:49 | 10:54:22 | 178174 | 227245
AccurateRip Summary (DiscID: 000cbcce-0058ce5a-820bd508)
Track 01 : NG (total 2 submissions)
Track 02 : NG (total 2 submissions)
Track 03 : NG (total 2 submissions)
Track 04 : NG (total 2 submissions)
Track 05 : NG (total 2 submissions)
Track 06 : NG (total 2 submissions)
Track 07 : NG (total 2 submissions)
Track 08 : NG (total 2 submissions)
->0 track accurately ripped, 8 tracks not
All Tracks
Album gain : -1.23 dB
Peak : 0.920380
CRC32 hash : 7297FCCE
CRC32 hash (skip zero) : 3FDE12A5
Track 01
Track gain : 1.43 dB
Peak : 0.712891
CRC32 hash : 5A24AF1A
CRC32 hash (skip zero) : 8AC44644
AccurateRip v1 signature : 73BBDF18
AccurateRip v2 signature : E8290179
->Rip may not be accurate (total 2 submissions).
Track 02
Track gain : 0.76 dB
Peak : 0.734161
CRC32 hash : 46AF7D2C
CRC32 hash (skip zero) : 42A1F0AC
AccurateRip v1 signature : 3DAE5B07
AccurateRip v2 signature : 2D4E1B4E
->Rip may not be accurate (total 2 submissions).
Track 03
Track gain : 6.96 dB
Peak : 0.370667
CRC32 hash : 06DB8056
CRC32 hash (skip zero) : 75C752A1
AccurateRip v1 signature : 6F43C5FF
AccurateRip v2 signature : 045625D1
->Rip may not be accurate (total 2 submissions).
Track 04
Track gain : -1.71 dB
Peak : 0.920380
CRC32 hash : B53A4E6F
CRC32 hash (skip zero) : BFD907B7
AccurateRip v1 signature : 9672BC3F
AccurateRip v2 signature : 1909112D
->Rip may not be accurate (total 2 submissions).
Track 05
Track gain : -2.55 dB
Peak : 0.886017
CRC32 hash : A167FD08
CRC32 hash (skip zero) : 2F6FEBB4
AccurateRip v1 signature : EC72AE64
AccurateRip v2 signature : 3948E5B7
->Rip may not be accurate (total 2 submissions).
Track 06
Track gain : -0.14 dB
Peak : 0.909943
CRC32 hash : 81572C7B
CRC32 hash (skip zero) : 7A572FC7
AccurateRip v1 signature : 630B9468
AccurateRip v2 signature : F32D1A72
->Rip may not be accurate (total 2 submissions).
Track 07
Track gain : 0.16 dB
Peak : 0.804718
CRC32 hash : 8C10B8D0
CRC32 hash (skip zero) : E584F98F
AccurateRip v1 signature : 279D0FA1
AccurateRip v2 signature : A4F0FE88
->Rip may not be accurate (total 2 submissions).
Track 08
Track gain : -1.98 dB
Peak : 0.881561
CRC32 hash : 58D4A7D0
CRC32 hash (skip zero) : AD3180BA
AccurateRip v1 signature : B76426CD
AccurateRip v2 signature : BD82F459
->Rip may not be accurate (total 2 submissions).
End of status report

CD 2

X Lossless Decoder version 20140504 (147.0)
XLD AccurateRip checking logfile
TOC of the selected file
Track | Start | Length | Start sector | End sector
---------------------------------------------------------
1 | 00:00:00 | 07:03:21 | 0 | 31745
2 | 07:03:21 | 04:30:52 | 31746 | 52047
3 | 11:33:73 | 03:44:31 | 52048 | 68878
4 | 15:18:29 | 05:36:25 | 68879 | 94103
5 | 20:54:54 | 10:41:41 | 94104 | 142219
6 | 31:36:20 | 03:26:01 | 142220 | 157670
7 | 35:02:21 | 06:41:48 | 157671 | 187793
8 | 41:43:69 | 04:03:04 | 187794 | 206022
9 | 45:46:73 | 08:19:32 | 206023 | 243479
AccurateRip Summary (DiscID: 001210dd-0084f741-7c0cae09)
Track 01 : NG (total 2 submissions)
Track 02 : NG (total 2 submissions)
Track 03 : NG (total 2 submissions)
Track 04 : NG (total 2 submissions)
Track 05 : NG (total 2 submissions)
Track 06 : NG (total 2 submissions)
Track 07 : NG (total 2 submissions)
Track 08 : NG (total 2 submissions)
Track 09 : NG (total 2 submissions)
->0 track accurately ripped, 9 tracks not
All Tracks
Album gain : -2.72 dB
Peak : 0.958527
CRC32 hash : 545FDE14
CRC32 hash (skip zero) : 1376E9A7
Track 01
Track gain : -2.53 dB
Peak : 0.921265
CRC32 hash : 0DC9E3CF
CRC32 hash (skip zero) : ABD81FCF
AccurateRip v1 signature : 3570572B
AccurateRip v2 signature : 26830697
->Rip may not be accurate (total 2 submissions).
Track 02
Track gain : -2.36 dB
Peak : 0.891052
CRC32 hash : F1F552B5
CRC32 hash (skip zero) : F73BBBC3
AccurateRip v1 signature : DBAE7057
AccurateRip v2 signature : 36701DD6
->Rip may not be accurate (total 2 submissions).
Track 03
Track gain : -5.71 dB
Peak : 0.958527
CRC32 hash : 700E035D
CRC32 hash (skip zero) : 481CB2D8
AccurateRip v1 signature : 8B140E2A
AccurateRip v2 signature : B58E557A
->Rip may not be accurate (total 2 submissions).
Track 04
Track gain : -1.51 dB
Peak : 0.715576
CRC32 hash : 1241249C
CRC32 hash (skip zero) : 74060DF6
AccurateRip v1 signature : 388E8241
AccurateRip v2 signature : 30B74C90
->Rip may not be accurate (total 2 submissions).
Track 05
Track gain : -2.20 dB
Peak : 0.863373
CRC32 hash : 4C52C648
CRC32 hash (skip zero) : DAC409BF
AccurateRip v1 signature : ECF48657
AccurateRip v2 signature : 6E05E0FA
->Rip may not be accurate (total 2 submissions).
Track 06
Track gain : -3.38 dB
Peak : 0.700409
CRC32 hash : 92896687
CRC32 hash (skip zero) : 0E6D5A97
AccurateRip v1 signature : F9CAC443
AccurateRip v2 signature : F4D51CCE
->Rip may not be accurate (total 2 submissions).
Track 07
Track gain : -0.43 dB
Peak : 0.601837
CRC32 hash : 99603F38
CRC32 hash (skip zero) : D73838AD
AccurateRip v1 signature : AB40434D
AccurateRip v2 signature : C81EEEA9
->Rip may not be accurate (total 2 submissions).
Track 08
Track gain : 3.89 dB
Peak : 0.446259
CRC32 hash : 5FAD1143
CRC32 hash (skip zero) : 044EFB78
AccurateRip v1 signature : A525E846
AccurateRip v2 signature : E4E10DB7
->Rip may not be accurate (total 2 submissions).
Track 09
Track gain : -2.75 dB
Peak : 0.755463
CRC32 hash : D7A6CC06
CRC32 hash (skip zero) : 160CF1FF
AccurateRip v1 signature : FEC1B3DE
AccurateRip v2 signature : BA5FEEFC
->Rip may not be accurate (total 2 submissions).
End of status report

CD 3

X Lossless Decoder version 20140504 (147.0)
XLD AccurateRip checking logfile
TOC of the selected file
Track | Start | Length | Start sector | End sector
---------------------------------------------------------
1 | 00:00:00 | 12:00:67 | 0 | 54066
2 | 12:00:67 | 09:06:46 | 54067 | 95062
3 | 21:07:38 | 10:56:08 | 95063 | 144270
4 | 32:03:46 | 07:00:37 | 144271 | 175807
5 | 39:04:08 | 05:00:21 | 175808 | 198328
6 | 44:04:29 | 04:53:07 | 198329 | 220310
7 | 48:57:36 | 08:29:24 | 220311 | 258509
8 | 57:26:60 | 03:10:34 | 258510 | 272793
9 | 60:37:19 | 03:49:66 | 272794 | 290034
10 | 64:27:10 | 05:42:47 | 290035 | 315731
List of alternate offset correction values
(1) 667 (confidence 3)
AccurateRip Summary (DiscID: 001ee5d8-00ec2dd3-aa10710a)
Track 01 : OK (v1, confidence 3/3, with different offset)
Track 02 : OK (v1, confidence 3/3, with different offset)
Track 03 : OK (v1, confidence 3/3, with different offset)
Track 04 : OK (v1, confidence 3/3, with different offset)
Track 05 : OK (v1, confidence 3/3, with different offset)
Track 06 : OK (v1, confidence 3/3, with different offset)
Track 07 : OK (v1, confidence 3/3, with different offset)
Track 08 : OK (v1, confidence 3/3, with different offset)
Track 09 : OK (v1, confidence 3/3, with different offset)
Track 10 : OK (v1, confidence 2/2, with different offset)
->All tracks accurately ripped.
All Tracks
Album gain : -1.33 dB
Peak : 0.988525
CRC32 hash : 37E5CDD7
CRC32 hash (skip zero) : 14ED9870
Track 01
Track gain : -3.00 dB
Peak : 0.916626
CRC32 hash : F063D5E3
CRC32 hash (skip zero) : 33288F8B
AccurateRip v1 signature : FAC931A0 (E82C18DB w/correction)
AccurateRip v2 signature : 2C001F93
->Accurately ripped with different offset (v1, confidence 3/3, offset +667)
Track 02
Track gain : 9.06 dB
Peak : 0.398468
CRC32 hash : 292B1E46
CRC32 hash (skip zero) : 181201C3
AccurateRip v1 signature : 94F5E80A (A233A80B w/correction)
AccurateRip v2 signature : B62B6B5A
->Accurately ripped with different offset (v1, confidence 3/3, offset +667)
Track 03
Track gain : -1.29 dB
Peak : 0.891754
CRC32 hash : E0D7872A
CRC32 hash (skip zero) : 18F7B359
AccurateRip v1 signature : F4A03561 (75ADADDB w/correction)
AccurateRip v2 signature : 1B6060F6
->Accurately ripped with different offset (v1, confidence 3/3, offset +667)
Track 04
Track gain : -3.17 dB
Peak : 0.988525
CRC32 hash : 7A5A4A27
CRC32 hash (skip zero) : 2C06702C
AccurateRip v1 signature : DB082F20 (DB734191 w/correction)
AccurateRip v2 signature : 6A4D8737
->Accurately ripped with different offset (v1, confidence 3/3, offset +667)
Track 05
Track gain : 3.15 dB
Peak : 0.437531
CRC32 hash : 4CB68DA9
CRC32 hash (skip zero) : FF73D90E
AccurateRip v1 signature : AFC68216 (5CA46645 w/correction)
AccurateRip v2 signature : 7BD3AED7
->Accurately ripped with different offset (v1, confidence 3/3, offset +667)
Track 06
Track gain : 6.10 dB
Peak : 0.434052
CRC32 hash : C1EFDDA8
CRC32 hash (skip zero) : A1C659A5
AccurateRip v1 signature : 8FFFD8F8 (0FC3F55D w/correction)
AccurateRip v2 signature : BBFF5703
->Accurately ripped with different offset (v1, confidence 3/3, offset +667)
Track 07
Track gain : -2.50 dB
Peak : 0.776733
CRC32 hash : 85CADA7B
CRC32 hash (skip zero) : FAD78E72
AccurateRip v1 signature : 7709322D (41D149E9 w/correction)
AccurateRip v2 signature : 6D440BC0
->Accurately ripped with different offset (v1, confidence 3/3, offset +667)
Track 08
Track gain : 2.90 dB
Peak : 0.516541
CRC32 hash : E6DCF8EA
CRC32 hash (skip zero) : 6516F817
AccurateRip v1 signature : 9E9E51E9 (32FC18BB w/correction)
AccurateRip v2 signature : 1F3A7E94
->Accurately ripped with different offset (v1, confidence 3/3, offset +667)
Track 09
Track gain : 12.64 dB
Peak : 0.177673
CRC32 hash : 8E8704F2
CRC32 hash (skip zero) : DF0B9563
AccurateRip v1 signature : C6AEC7FE (2D5CCD85 w/correction)
AccurateRip v2 signature : 81838D56
->Accurately ripped with different offset (v1, confidence 3/3, offset +667)
Track 10
Track gain : -1.93 dB
Peak : 0.920685
CRC32 hash : A8FA0A0E
CRC32 hash (skip zero) : 1AA867E0
AccurateRip v1 signature : 776228C6 (A62CA8D5 w/correction)
AccurateRip v2 signature : E71BAAE5
->Accurately ripped with different offset (v1, confidence 2/2, offset +667)
End of status report

CD 4

X Lossless Decoder version 20140504 (147.0)
XLD AccurateRip checking logfile
TOC of the selected file
Track | Start | Length | Start sector | End sector
---------------------------------------------------------
1 | 00:00:00 | 04:30:29 | 0 | 20278
2 | 04:30:29 | 02:45:58 | 20279 | 32711
3 | 07:16:12 | 04:32:30 | 32712 | 53141
4 | 11:48:42 | 04:43:33 | 53142 | 74399
5 | 16:32:00 | 03:13:64 | 74400 | 88938
6 | 19:45:64 | 04:05:40 | 88939 | 107353
7 | 23:51:29 | 03:40:62 | 107354 | 123915
8 | 27:32:16 | 04:01:18 | 123916 | 142008
9 | 31:33:34 | 03:27:43 | 142009 | 157576
10 | 35:01:02 | 10:18:58 | 157577 | 203984
11 | 45:19:60 | 03:57:34 | 203985 | 221793
12 | 49:17:19 | 04:18:53 | 221794 | 241196
13 | 53:35:72 | 06:16:05 | 241197 | 269401
14 | 59:52:02 | 09:05:31 | 269402 | 310307
List of alternate offset correction values
(1) 667 (confidence 2)
AccurateRip Summary (DiscID: 001f3c26-01549656-ca10290e)
Track 01 : OK (v1, confidence 2/2, with different offset)
Track 02 : OK (v1, confidence 2/2, with different offset)
Track 03 : OK (v1, confidence 2/2, with different offset)
Track 04 : OK (v1, confidence 2/2, with different offset)
Track 05 : OK (v1, confidence 2/2, with different offset)
Track 06 : OK (v1, confidence 2/2, with different offset)
Track 07 : OK (v1, confidence 2/2, with different offset)
Track 08 : OK (v1, confidence 2/2, with different offset)
Track 09 : OK (v1, confidence 2/2, with different offset)
Track 10 : OK (v1, confidence 2/2, with different offset)
Track 11 : OK (v1, confidence 2/2, with different offset)
Track 12 : OK (v1, confidence 2/2, with different offset)
Track 13 : OK (v1, confidence 2/2, with different offset)
Track 14 : OK (v1, confidence 2/2, with different offset)
->All tracks accurately ripped.
All Tracks
Album gain : -1.44 dB
Peak : 0.918213
CRC32 hash : 14611884
CRC32 hash (skip zero) : 92DCD84B
Track 01
Track gain : 5.58 dB
Peak : 0.474274
CRC32 hash : 8F0E855C
CRC32 hash (skip zero) : 66FE81CD
AccurateRip v1 signature : 9B4ACF92 (5D68AF0B w/correction)
AccurateRip v2 signature : 9739AD8A
->Accurately ripped with different offset (v1, confidence 2/2, offset +667)
Track 02
Track gain : -5.86 dB
Peak : 0.900391
CRC32 hash : E71FDFD5
CRC32 hash (skip zero) : 07BF2C32
AccurateRip v1 signature : 6DE23288 (03BC635E w/correction)
AccurateRip v2 signature : 68731181
->Accurately ripped with different offset (v1, confidence 2/2, offset +667)
Track 03
Track gain : -0.59 dB
Peak : 0.843079
CRC32 hash : F5D0066B
CRC32 hash (skip zero) : 8248E4BF
AccurateRip v1 signature : 573ECFDF (6F502865 w/correction)
AccurateRip v2 signature : B44584AD
->Accurately ripped with different offset (v1, confidence 2/2, offset +667)
Track 04
Track gain : 0.04 dB
Peak : 0.883606
CRC32 hash : C07528FB
CRC32 hash (skip zero) : F8421F93
AccurateRip v1 signature : E13E98C2 (761F65D8 w/correction)
AccurateRip v2 signature : CFFD0B27
->Accurately ripped with different offset (v1, confidence 2/2, offset +667)
Track 05
Track gain : 3.22 dB
Peak : 0.548401
CRC32 hash : 19371A12
CRC32 hash (skip zero) : 35BF0165
AccurateRip v1 signature : F445801B (210EAB3D w/correction)
AccurateRip v2 signature : BF0F7354
->Accurately ripped with different offset (v1, confidence 2/2, offset +667)
Track 06
Track gain : 3.46 dB
Peak : 0.868469
CRC32 hash : 47100BD8
CRC32 hash (skip zero) : 272D8B76
AccurateRip v1 signature : 3AF619A0 (4D8F31B3 w/correction)
AccurateRip v2 signature : 1406504E
->Accurately ripped with different offset (v1, confidence 2/2, offset +667)
Track 07
Track gain : 2.25 dB
Peak : 0.463409
CRC32 hash : 84F547DB
CRC32 hash (skip zero) : 264506C6
AccurateRip v1 signature : 70DB4C9F (C818F0D8 w/correction)
AccurateRip v2 signature : 7920BC2C
->Accurately ripped with different offset (v1, confidence 2/2, offset +667)
Track 08
Track gain : 0.57 dB
Peak : 0.757111
CRC32 hash : 3BF35CB1
CRC32 hash (skip zero) : 6B07EB19
AccurateRip v1 signature : D9CA81EF (76DFE757 w/correction)
AccurateRip v2 signature : FE71837F
->Accurately ripped with different offset (v1, confidence 2/2, offset +667)
Track 09
Track gain : 2.38 dB
Peak : 0.702271
CRC32 hash : C5638354
CRC32 hash (skip zero) : 2BA2C80D
AccurateRip v1 signature : AA210287 (F02CE0B1 w/correction)
AccurateRip v2 signature : A726F4B2
->Accurately ripped with different offset (v1, confidence 2/2, offset +667)
Track 10
Track gain : -1.72 dB
Peak : 0.855194
CRC32 hash : 40940B6A
CRC32 hash (skip zero) : B138229E
AccurateRip v1 signature : F0C8986D (DA26A735 w/correction)
AccurateRip v2 signature : 0D30F228
->Accurately ripped with different offset (v1, confidence 2/2, offset +667)
Track 11
Track gain : 9.66 dB
Peak : 0.291321
CRC32 hash : 6E6710D8
CRC32 hash (skip zero) : 19094E95
AccurateRip v1 signature : 1E205F5F (F460A279 w/correction)
AccurateRip v2 signature : C6784BAB
->Accurately ripped with different offset (v1, confidence 2/2, offset +667)
Track 12
Track gain : -4.28 dB
Peak : 0.918213
CRC32 hash : 5D8A16C6
CRC32 hash (skip zero) : 2304FA26
AccurateRip v1 signature : 49474543 (148B7423 w/correction)
AccurateRip v2 signature : 0D4F08F8
->Accurately ripped with different offset (v1, confidence 2/2, offset +667)
Track 13
Track gain : 5.20 dB
Peak : 0.556610
CRC32 hash : AAFF4F17
CRC32 hash (skip zero) : CC208F8C
AccurateRip v1 signature : 47E5072E (EB414110 w/correction)
AccurateRip v2 signature : 3C09E219
->Accurately ripped with different offset (v1, confidence 2/2, offset +667)
Track 14
Track gain : -0.74 dB
Peak : 0.914612
CRC32 hash : E6036861
CRC32 hash (skip zero) : ECA06471
AccurateRip v1 signature : 8282640A (868990C2 w/correction)
AccurateRip v2 signature : 8F445326
->Accurately ripped with different offset (v1, confidence 2/2, offset +667)
End of status report

CD 5

X Lossless Decoder version 20140504 (147.0)
XLD AccurateRip checking logfile
TOC of the selected file
Track | Start | Length | Start sector | End sector
---------------------------------------------------------
1 | 00:00:00 | 01:55:29 | 0 | 8653
2 | 01:55:29 | 02:33:08 | 8654 | 20136
3 | 04:28:37 | 01:32:19 | 20137 | 27055
4 | 06:00:56 | 01:21:42 | 27056 | 33172
5 | 07:22:23 | 00:59:58 | 33173 | 37655
6 | 08:22:06 | 04:38:23 | 37656 | 58528
7 | 13:00:29 | 03:16:46 | 58529 | 73274
8 | 16:17:00 | 06:11:20 | 73275 | 101119
9 | 22:28:20 | 18:25:62 | 101120 | 184056
10 | 40:54:07 | 15:22:68 | 184057 | 253274
List of alternate offset correction values
(1) 667 (confidence 3)
AccurateRip Summary (DiscID: 000c2904-006c7eb3-780d310a)
Track 01 : OK (v1, confidence 3/3, with different offset)
Track 02 : OK (v1, confidence 3/3, with different offset)
Track 03 : OK (v1, confidence 3/3, with different offset)
Track 04 : OK (v1, confidence 3/3, with different offset)
Track 05 : OK (v1, confidence 3/3, with different offset)
Track 06 : OK (v1, confidence 3/3, with different offset)
Track 07 : OK (v1, confidence 3/3, with different offset)
Track 08 : OK (v1, confidence 3/3, with different offset)
Track 09 : OK (v1, confidence 3/3, with different offset)
Track 10 : OK (v1, confidence 3/3, with different offset)
->All tracks accurately ripped.
All Tracks
Album gain : -0.40 dB
Peak : 0.900970
CRC32 hash : ED7DFE28
CRC32 hash (skip zero) : 76E7CE49
Track 01
Track gain : 7.74 dB
Peak : 0.472473
CRC32 hash : EB1C380D
CRC32 hash (skip zero) : FDADCB27
AccurateRip v1 signature : 6AF906F7 (7D86B32E w/correction)
AccurateRip v2 signature : 30AEE9E3
->Accurately ripped with different offset (v1, confidence 3/3, offset +667)
Track 02
Track gain : 6.90 dB
Peak : 0.274384
CRC32 hash : A08B18E6
CRC32 hash (skip zero) : 05468301
AccurateRip v1 signature : 3F8D87B9 (AFEA21D9 w/correction)
AccurateRip v2 signature : 9A210CE9
->Accurately ripped with different offset (v1, confidence 3/3, offset +667)
Track 03
Track gain : -0.44 dB
Peak : 0.745483
CRC32 hash : 43E819A7
CRC32 hash (skip zero) : F8AF7F8F
AccurateRip v1 signature : C80C69D2 (931C4420 w/correction)
AccurateRip v2 signature : A9FDF575
->Accurately ripped with different offset (v1, confidence 3/3, offset +667)
Track 04
Track gain : -2.80 dB
Peak : 0.870056
CRC32 hash : 6BC7F4ED
CRC32 hash (skip zero) : FDCCC2C3
AccurateRip v1 signature : 3A10DAEE (B9675007 w/correction)
AccurateRip v2 signature : 0237AFCD
->Accurately ripped with different offset (v1, confidence 3/3, offset +667)
Track 05
Track gain : -3.90 dB
Peak : 0.863586
CRC32 hash : 82B28B8D
CRC32 hash (skip zero) : CAF8690B
AccurateRip v1 signature : 45318DED (B5E11B49 w/correction)
AccurateRip v2 signature : 7BA991BC
->Accurately ripped with different offset (v1, confidence 3/3, offset +667)
Track 06
Track gain : 2.25 dB
Peak : 0.492249
CRC32 hash : E67A2604
CRC32 hash (skip zero) : 5153F5AA
AccurateRip v1 signature : FA931E2F (CDCB5811 w/correction)
AccurateRip v2 signature : C246F018
->Accurately ripped with different offset (v1, confidence 3/3, offset +667)
Track 07
Track gain : 10.19 dB
Peak : 0.373230
CRC32 hash : 2DAC3F7A
CRC32 hash (skip zero) : 0034521F
AccurateRip v1 signature : 4ACFA392 (6A4AF9E1 w/correction)
AccurateRip v2 signature : C045B346
->Accurately ripped with different offset (v1, confidence 3/3, offset +667)
Track 08
Track gain : 1.11 dB
Peak : 0.803955
CRC32 hash : 4073D2DC
CRC32 hash (skip zero) : 8EC699D6
AccurateRip v1 signature : F586593F (6C971B28 w/correction)
AccurateRip v2 signature : 29915713
->Accurately ripped with different offset (v1, confidence 3/3, offset +667)
Track 09
Track gain : -1.83 dB
Peak : 0.900970
CRC32 hash : B82CC021
CRC32 hash (skip zero) : C7C55C8C
AccurateRip v1 signature : EDB9B249 (0D269BE5 w/correction)
AccurateRip v2 signature : 16A9CDD4
->Accurately ripped with different offset (v1, confidence 3/3, offset +667)
Track 10
Track gain : 0.80 dB
Peak : 0.890381
CRC32 hash : F9ED1FB3
CRC32 hash (skip zero) : 0BB54AC5
AccurateRip v1 signature : F9ADDDB4 (D5D350C9 w/correction)
AccurateRip v2 signature : 3D70CE9C
->Accurately ripped with different offset (v1, confidence 3/3, offset +667)
End of status report

CD 6

X Lossless Decoder version 20140504 (147.0)
XLD AccurateRip checking logfile
TOC of the selected file
Track | Start | Length | Start sector | End sector
---------------------------------------------------------
1 | 00:00:00 | 08:23:09 | 0 | 37733
2 | 08:23:09 | 09:20:13 | 37734 | 79746
3 | 17:43:22 | 08:42:32 | 79747 | 118928
4 | 26:25:54 | 11:35:04 | 118929 | 171057
5 | 38:00:58 | 06:21:27 | 171058 | 199659
6 | 44:22:10 | 02:00:49 | 199660 | 208708
7 | 46:22:59 | 04:34:52 | 208709 | 229310
8 | 50:57:36 | 05:01:30 | 229311 | 251915
9 | 55:58:66 | 06:28:58 | 251916 | 281073
AccurateRip Summary (DiscID: 0018149a-00ab28d7-7f0ea309)
Track 01 : NG (total 2 submissions)
Track 02 : NG (total 2 submissions)
Track 03 : NG (total 2 submissions)
Track 04 : NG (total 2 submissions)
Track 05 : NG (total 2 submissions)
Track 06 : NG (total 2 submissions)
Track 07 : NG (total 2 submissions)
Track 08 : NG (total 2 submissions)
Track 09 : NG (total 2 submissions)
->0 track accurately ripped, 9 tracks not
All Tracks
Album gain : -0.44 dB
Peak : 0.988525
CRC32 hash : 1CBB5627
CRC32 hash (skip zero) : CF156183
Track 01
Track gain : -2.22 dB
Peak : 0.914795
CRC32 hash : 6A2BF148
CRC32 hash (skip zero) : DC79E914
AccurateRip v1 signature : 9E1391D7
AccurateRip v2 signature : D4D95B7F
->Rip may not be accurate (total 2 submissions).
Track 02
Track gain : 2.11 dB
Peak : 0.666901
CRC32 hash : E88100EF
CRC32 hash (skip zero) : CB10461C
AccurateRip v1 signature : 0EF0CE04
AccurateRip v2 signature : EFB03017
->Rip may not be accurate (total 2 submissions).
Track 03
Track gain : -0.71 dB
Peak : 0.942749
CRC32 hash : F45710C2
CRC32 hash (skip zero) : 1667307B
AccurateRip v1 signature : 3CD13C24
AccurateRip v2 signature : 0BA14C52
->Rip may not be accurate (total 2 submissions).
Track 04
Track gain : 6.22 dB
Peak : 0.358124
CRC32 hash : F5B734E0
CRC32 hash (skip zero) : D50E464A
AccurateRip v1 signature : 2D9DA7CA
AccurateRip v2 signature : 030D77EC
->Rip may not be accurate (total 2 submissions).
Track 05
Track gain : 0.66 dB
Peak : 0.988525
CRC32 hash : 721EEBFA
CRC32 hash (skip zero) : C57CAEA8
AccurateRip v1 signature : 144EA5A4
AccurateRip v2 signature : CA19BD2D
->Rip may not be accurate (total 2 submissions).
Track 06
Track gain : -5.56 dB
Peak : 0.929626
CRC32 hash : D8FF4637
CRC32 hash (skip zero) : E7951C39
AccurateRip v1 signature : E3380BA2
AccurateRip v2 signature : 52EE4D57
->Rip may not be accurate (total 2 submissions).
Track 07
Track gain : 3.37 dB
Peak : 0.680542
CRC32 hash : B39A8760
CRC32 hash (skip zero) : 944D60B4
AccurateRip v1 signature : E2DECE2A
AccurateRip v2 signature : AA624BA3
->Rip may not be accurate (total 2 submissions).
Track 08
Track gain : -3.82 dB
Peak : 0.927216
CRC32 hash : 7EE49E02
CRC32 hash (skip zero) : 1CA126EC
AccurateRip v1 signature : 1D7E1865
AccurateRip v2 signature : DF58F64D
->Rip may not be accurate (total 2 submissions).
Track 09
Track gain : -0.92 dB
Peak : 0.983368
CRC32 hash : D3C64342
CRC32 hash (skip zero) : 4BACF4DC
AccurateRip v1 signature : FE0B608D
AccurateRip v2 signature : 98899988
->Rip may not be accurate (total 2 submissions).
End of status report
Доп. информация: не мой рип, проверяется с XLD. Диски 1, 2 и 6 "не является точным" но звучат хорошо мне



Показать сообщения:    

Текущее время: 08-Дек 11:01

Часовой пояс: UTC + 3


Вы не можете начинать темы
Вы не можете отвечать на сообщения
Вы не можете редактировать свои сообщения
Вы не можете удалять свои сообщения
Вы не можете голосовать в опросах
Вы не можете прикреплять файлы к сообщениям
Вы не можете скачивать файлы