(Classical) Claudio Monteverdi - Lamento d'Arianna; Scherzi Musicali - Rosita Frisani, Manuela Custer; Ensemble Arte-Musica, Francesco Cera - 2006, FLAC (image+.cue) lossless


 

[Цитировать]

Claudio Monteverdi - Lamento d'Arianna; Scherzi Musicali - Rosita Frisani, Manuela Custer; Ensemble Arte-Musica, Francesco Cera
Жанр: Classical
Страна-производитель диска: Italy
Год издания диска: 2006
Издатель (лейбл): Tactus
Номер по каталогу: TC 561307
Дата записи: 1999
Аудиокодек: FLAC
Тип рипа: image+.cue
Битрейт аудио: lossless
Продолжительность: 52:52
Источник: собственный рип
Наличие сканов в содержимом раздачи: да
Треклист:
Claudio Monteverdi (1567-1643)
Lamento d'Arianna
[1] Lasciatemi morire
Scherzi Musicali (1632)
[2] Maledetto sia l'aspetto
[3] Quel sguardo sdegnosetto
[4] Eri già tutta mia
[5] Ecco di dolci raggi
[6] Et è pur dunque vero
[7] Zefiro torna (a due voci)
[8] Armato il cor (a due voci)
[9] Si dolce è 'l tormento
[10] Perché se m'odiavi
[11] Ohimè ch'io cado
[12] La mia turca
Lamento d'Ottavia da L'Incoronazione di Poppea
[13] Disprezzata Regina
Исполнители:
Rosita Frisani soprano
Manuela Custer mezzo-soprano
Ensemble Arte-Musica
Francesco Cera

Лог создания рипа

Exact Audio Copy V1.0 beta 3 from 29. August 2011
EAC extraction logfile from 14. August 2014, 1:21
Ensemble Arte-Musica, Francesco Cera / Monteverdi - Lamento d'Arianna; Scherzi Musicali
Used drive : HL-DT-STDVDRAM GU70N Adapter: 0 ID: 0
Read mode : Secure
Utilize accurate stream : Yes
Defeat audio cache : Yes
Make use of C2 pointers : No
Read offset correction : 48
Overread into Lead-In and Lead-Out : No
Fill up missing offset samples with silence : Yes
Delete leading and trailing silent blocks : No
Null samples used in CRC calculations : Yes
Used interface : Native Win32 interface for Win NT & 2000
Used output format : User Defined Encoder
Selected bitrate : 128 kBit/s
Quality : High
Add ID3 tag : No
Command line compressor : C:\Program Files (x86)\Exact Audio Copy\Flac\flac.exe
Additional command line options : -V -8 -T "Date=%year%" -T "Genre=%genre%" %source%
TOC of the extracted CD
Track | Start | Length | Start sector | End sector
---------------------------------------------------------
1 | 0:00.00 | 9:42.39 | 0 | 43688
2 | 9:42.39 | 1:13.29 | 43689 | 49192
3 | 10:55.68 | 2:19.64 | 49193 | 59681
4 | 13:15.57 | 2:47.41 | 59682 | 72247
5 | 16:03.23 | 2:39.39 | 72248 | 84211
6 | 18:42.62 | 7:37.53 | 84212 | 118539
7 | 26:20.40 | 5:45.51 | 118540 | 144465
8 | 32:06.16 | 2:53.09 | 144466 | 157449
9 | 34:59.25 | 3:16.58 | 157450 | 172207
10 | 38:16.08 | 2:03.08 | 172208 | 181440
11 | 40:19.16 | 4:14.45 | 181441 | 200535
12 | 44:33.61 | 2:42.68 | 200536 | 212753
13 | 47:16.54 | 5:35.73 | 212754 | 237951
Range status and errors
Selected range
Filename C:\temp\Monteverdi - Lamento d'Arianna; Scherzi Musicali\Monteverdi - Lamento d'Arianna; Scherzi Musicali.wav
Peak level 100.0 %
Extraction speed 2.0 X
Range quality 100.0 %
Test CRC 64BF6E15
Copy CRC 64BF6E15
Copy OK
No errors occurred
AccurateRip summary
Track 1 accurately ripped (confidence 2) [C76EBCCA] (AR v2)
Track 2 accurately ripped (confidence 2) [86469058] (AR v2)
Track 3 accurately ripped (confidence 2) [EDC47A8D] (AR v2)
Track 4 accurately ripped (confidence 2) [A2DA827F] (AR v2)
Track 5 accurately ripped (confidence 2) [CD9A5244] (AR v2)
Track 6 accurately ripped (confidence 2) [0EB4BF57] (AR v2)
Track 7 accurately ripped (confidence 2) [A33FA1C8] (AR v2)
Track 8 accurately ripped (confidence 2) [0C0DCF14] (AR v2)
Track 9 accurately ripped (confidence 2) [24EC7BC6] (AR v2)
Track 10 accurately ripped (confidence 2) [C0FE446C] (AR v2)
Track 11 accurately ripped (confidence 2) [937978F7] (AR v2)
Track 12 accurately ripped (confidence 2) [F6A0AC2F] (AR v2)
Track 13 accurately ripped (confidence 2) [827296D0] (AR v2)
All tracks accurately ripped
End of status report
==== Log checksum D519925F9F30D13A7FFC42F9C92A3E24848E7FE904D404D9AEF65553605D4852 ====



Показать сообщения:    

Текущее время: 05-Дек 05:24

Часовой пояс: UTC + 3


Вы не можете начинать темы
Вы не можете отвечать на сообщения
Вы не можете редактировать свои сообщения
Вы не можете удалять свои сообщения
Вы не можете голосовать в опросах
Вы не можете прикреплять файлы к сообщениям
Вы не можете скачивать файлы