(Classical) Claudio Monteverdi - Settimo Libro de Madrigali - Ensemble "Concerto", Cappella Mauriziana, Roberto Gini - 2CD - 2006, FLAC (image+.cue) lossless


 

[Цитировать]

Claudio Monteverdi - Settimo Libro de Madrigali - Ensemble "Concerto", Cappella Mauriziana, Roberto Gini
Жанр: Classical
Страна-производитель диска: Italy
Год издания диска: 2006
Издатель (лейбл): Tactus
Номер по каталогу: TC 561390
Дата записи: 1987-1989
Аудиокодек: FLAC
Тип рипа: image+.cue
Битрейт аудио: lossless
Продолжительность: 2:15:25
Источник: собственный рип
Наличие сканов в содержимом раздачи: да
Треклист:
Claudio Monteverdi (1567-1643)
Settimo Libro de Madrigali

CD1

[1] Symphonia - Tempro la Cetra
[2] A Quest'Olmo
[3] Non è di gentil core
[4] O come sei gentile
[5] Io son pur Vezzosetta
[6] O viva fiamma
[7] Vorei Baciarti
[8] Dice la mia Belissima Licori
[9] Ah, che non si conviene
[10] Non vedrò mai le stelle
[11] Ecco vicine o bela Tigre
[12] Perche fuggi?
[13] Tornate
[14] Soave libertate
[15] S'el vostro cor madonna
[16] Interrotte speranze

CD2

[1] Augellin
[2] Vaga su spina ascosa
[3] Eccomi pronta a i Baci
[4] Parlo miser o taccio
[5] Tu dormi
[6] Al lume delle Stelle
[7] Con che soavità
[8] Ohime dove il mio ben
[9] Se i languidi miei sguardi
[10] Se pur destina
[11] Chiome d'oro
[12] Amor che deggio far
[13] Tirsi e Clori - Ballo
Исполнители:
Ensemble "Concerto"
Cappella Mauriziana
Roberto Gini

Лог создания рипа: CD1

Exact Audio Copy V1.0 beta 3 from 29. August 2011
EAC extraction logfile from 5. August 2014, 0:55
Ensemble Concerto, Roberto Gini / Monteverdi - Settimo Libro de Madrigali - CD1
Used drive : HL-DT-STDVDRAM GU70N Adapter: 0 ID: 0
Read mode : Secure
Utilize accurate stream : Yes
Defeat audio cache : Yes
Make use of C2 pointers : No
Read offset correction : 48
Overread into Lead-In and Lead-Out : No
Fill up missing offset samples with silence : Yes
Delete leading and trailing silent blocks : No
Null samples used in CRC calculations : Yes
Used interface : Native Win32 interface for Win NT & 2000
Used output format : User Defined Encoder
Selected bitrate : 128 kBit/s
Quality : High
Add ID3 tag : No
Command line compressor : C:\Program Files (x86)\Exact Audio Copy\Flac\flac.exe
Additional command line options : -V -8 -T "Date=%year%" -T "Genre=%genre%" %source%
TOC of the extracted CD
Track | Start | Length | Start sector | End sector
---------------------------------------------------------
1 | 0:00.00 | 10:34.07 | 0 | 47556
2 | 10:34.07 | 5:38.50 | 47557 | 72956
3 | 16:12.57 | 4:02.00 | 72957 | 91106
4 | 20:14.57 | 4:49.25 | 91107 | 112806
5 | 25:04.07 | 3:45.25 | 112807 | 129706
6 | 28:49.32 | 3:34.00 | 129707 | 145756
7 | 32:23.32 | 3:36.37 | 145757 | 161993
8 | 35:59.69 | 2:09.63 | 161994 | 171731
9 | 38:09.57 | 2:59.50 | 171732 | 185206
10 | 41:09.32 | 3:31.00 | 185207 | 201031
11 | 44:40.32 | 3:28.00 | 201032 | 216631
12 | 48:08.32 | 2:47.00 | 216632 | 229156
13 | 50:55.32 | 2:32.50 | 229157 | 240606
14 | 53:28.07 | 3:07.71 | 240607 | 254702
15 | 56:36.03 | 4:31.25 | 254703 | 275052
16 | 61:07.28 | 4:10.48 | 275053 | 293850
Range status and errors
Selected range
Filename C:\temp\Monteverdi - Settimo Libro de Madrigali - Ensemble Concerto, Gini\Monteverdi - Settimo Libro de Madrigali - CD1.wav
Peak level 100.0 %
Extraction speed 2.1 X
Range quality 100.0 %
Test CRC 86C79552
Copy CRC 86C79552
Copy OK
No errors occurred
AccurateRip summary
Track 1 accurately ripped (confidence 2) [6B68EE08] (AR v2)
Track 2 accurately ripped (confidence 2) [252A03F7] (AR v2)
Track 3 accurately ripped (confidence 2) [22EE4150] (AR v2)
Track 4 accurately ripped (confidence 2) [B63633EE] (AR v2)
Track 5 accurately ripped (confidence 2) [D2C7D980] (AR v2)
Track 6 accurately ripped (confidence 2) [32A0EE4C] (AR v2)
Track 7 accurately ripped (confidence 2) [6367A851] (AR v2)
Track 8 accurately ripped (confidence 2) [C6D8FF87] (AR v2)
Track 9 accurately ripped (confidence 2) [2FBA2B05] (AR v2)
Track 10 accurately ripped (confidence 2) [5601BFEB] (AR v2)
Track 11 accurately ripped (confidence 2) [E9653282] (AR v2)
Track 12 accurately ripped (confidence 2) [D46B94D6] (AR v2)
Track 13 accurately ripped (confidence 2) [F5B892E2] (AR v2)
Track 14 accurately ripped (confidence 2) [F9B1B9A0] (AR v2)
Track 15 accurately ripped (confidence 2) [9BE8BE2D] (AR v2)
Track 16 accurately ripped (confidence 2) [128B3612] (AR v2)
All tracks accurately ripped
End of status report
==== Log checksum 2A1601F5B4415C42CFC57F3B58F14ADD65939DE42316A74EA7C518839D2A9D5F ====

Лог создания рипа: CD2

Exact Audio Copy V1.0 beta 3 from 29. August 2011
EAC extraction logfile from 5. August 2014, 8:20
Ensemble Concerto, Roberto Gini / Monteverdi - Settimo Libro de Madrigali - CD2
Used drive : HL-DT-STDVDRAM GU70N Adapter: 0 ID: 0
Read mode : Secure
Utilize accurate stream : Yes
Defeat audio cache : Yes
Make use of C2 pointers : No
Read offset correction : 48
Overread into Lead-In and Lead-Out : No
Fill up missing offset samples with silence : Yes
Delete leading and trailing silent blocks : No
Null samples used in CRC calculations : Yes
Used interface : Native Win32 interface for Win NT & 2000
Used output format : User Defined Encoder
Selected bitrate : 128 kBit/s
Quality : High
Add ID3 tag : No
Command line compressor : C:\Program Files (x86)\Exact Audio Copy\Flac\flac.exe
Additional command line options : -V -8 -T "Date=%year%" -T "Genre=%genre%" %source%
TOC of the extracted CD
Track | Start | Length | Start sector | End sector
---------------------------------------------------------
1 | 0:00.00 | 3:25.50 | 0 | 15424
2 | 3:25.50 | 2:44.25 | 15425 | 27749
3 | 6:10.00 | 2:10.00 | 27750 | 37499
4 | 8:20.00 | 5:09.42 | 37500 | 60716
5 | 13:29.42 | 3:13.61 | 60717 | 75252
6 | 16:43.28 | 4:35.18 | 75253 | 95895
7 | 21:18.46 | 4:54.00 | 95896 | 117945
8 | 26:12.46 | 5:31.50 | 117946 | 142820
9 | 31:44.21 | 8:49.00 | 142821 | 182495
10 | 40:33.21 | 9:50.50 | 182496 | 226795
11 | 50:23.71 | 3:15.37 | 226796 | 241457
12 | 53:39.33 | 4:19.17 | 241458 | 260899
13 | 57:58.50 | 12:12.00 | 260900 | 315799
Range status and errors
Selected range
Filename C:\temp\Monteverdi - Settimo Libro de Madrigali - Ensemble Concerto, Gini\Monteverdi - Settimo Libro de Madrigali - CD2.wav
Peak level 89.9 %
Extraction speed 2.2 X
Range quality 100.0 %
Test CRC 695CEA33
Copy CRC 695CEA33
Copy OK
No errors occurred
AccurateRip summary
Track 1 accurately ripped (confidence 2) [C8B7A738] (AR v2)
Track 2 accurately ripped (confidence 2) [EB0A9F1A] (AR v2)
Track 3 accurately ripped (confidence 2) [67148B53] (AR v2)
Track 4 accurately ripped (confidence 2) [6919C610] (AR v2)
Track 5 accurately ripped (confidence 2) [20358412] (AR v2)
Track 6 accurately ripped (confidence 2) [374139AB] (AR v2)
Track 7 accurately ripped (confidence 2) [A5740F69] (AR v2)
Track 8 accurately ripped (confidence 2) [3736C5B8] (AR v2)
Track 9 accurately ripped (confidence 2) [7580BB8B] (AR v2)
Track 10 accurately ripped (confidence 2) [940179F3] (AR v2)
Track 11 accurately ripped (confidence 2) [E11689A0] (AR v2)
Track 12 accurately ripped (confidence 2) [409D6980] (AR v2)
Track 13 accurately ripped (confidence 2) [57BEDFB4] (AR v2)
All tracks accurately ripped
End of status report
==== Log checksum 0E06F0DCEC60E61B9FBECF79A5386A2228BE1B73DBEA0A34056861C10B06556F ====



Показать сообщения:    

Текущее время: 10-Дек 19:41

Часовой пояс: UTC + 3


Вы не можете начинать темы
Вы не можете отвечать на сообщения
Вы не можете редактировать свои сообщения
Вы не можете удалять свои сообщения
Вы не можете голосовать в опросах
Вы не можете прикреплять файлы к сообщениям
Вы не можете скачивать файлы