(Classical, Vocal) Claude Debussy - Melodies (Melodies De Jeunesse,Ariettes Oubliees,Prose Lyriques,Trois Poemes De Stephane Mallarme) (Sandrine Piau; Jos Van Immerseel piano) - 2007, FLAC (image+.cue) lossless


 

[Цитировать]

Claude Debussy- Melodies
(Melodies De Jeunesse,Ariettes Oubliees,
Prose Lyriques,Trois Poemes De Stephane Mallarme)

(Sandrine Piau; Jos Van Immerseel piano)
Achille-Claude Debussy (1862-1918) Жанр: Classical, Vocal
Страна-производитель диска: France
Год издания диска: 2007
Издатель (лейбл): Naïve
Номер по каталогу: V 4932
Дата записи: 07.2002
Аудиокодек: FLAC
Тип рипа: image+.cue
Битрейт аудио: lossless
Продолжительность: 0:57:25
Источник: JVA
Наличие сканов в содержимом раздачи: да
Треклист:
Mélodies De Jeunesse
01. Apparition 1884 (03:42)
роеmе de Stéphane Mallarmé 1863
02. Romance 1883 (02:25)
роеmе de Paul Bourget
03. Les Papillons 1881 (01:40)
роеmе de Theophile Gautier in "Premieres Poesies" 1830-1845
04. Calmes Dans Le Demi-Jour 1882 (02:48)
роеmе "En sourdine"in "Fetes Galantes"de Paul Verlaine 1869
05. Regret 1884 (02:21)
роеme de Paul Bourget
Ariettes Oubliées 1885-1888
"Ariettes oubliees" in "Romances sans paroles" de Paul Verlaine 1872
06. C'est l'extase (02:53)
07. Il Pleure Dans Mon Coeur (02:36)
08. L'Ombre Des Arbres (02:23)
09. Paysages Belges:Chevaux de bois (03:10)
10. Aquarelles: Green (02:20)
11. Aquarelles: Spleen (02:23)
Prose Lyriques 1892-1893
poeme de Claude Achille Debussy
12. De Rêve (06:25)
13. De Grève (03:43)
14. De Fleurs (05:40)
15. De Soir (04:25)
Trois Poèmes De Stéphane Mallarmé 1913
16. Soupir (03:01)
17. Placet Futile (02:38)
18. Éventail (02:39)
Исполнители:
Sandrine Piau soprano
Jos Van Immerseel piano

Лог создания рипа

Exact Audio Copy V0.99 prebeta 5 from 4. May 2009
Отчёт EAC об извлечении, выполненном 20. августа 2014, 18:36
Sandrine Piau & Jos Van Immerseel / Debussy: Mйlodies
Дисковод: ATAPI iHAS124 E Adapter: 0 ID: 0
Режим чтения : Достоверность
Использование точного потока : Да
Отключение кэша аудио : Да
Использование указателей C2 : Нет
Коррекция смещения при чтении : 6
Способность читать области Lead-in и Lead-out : Нет
Заполнение пропущенных сэмплов тишиной : Да
Удаление блоков с тишиной в начале и конце : Нет
При вычислениях CRC использовались нулевые сэмплы : Да
Интерфейс : Встроенный Win32-интерфейс для Win NT/2000
Выходной формат : Пользовательский кодировщик
Выбранный битрейт : 768 kBit/s
Качество : Высокий
Добавление ID3-тэга : Нет
Утилита сжатия : C:\Program Files\Exact Audio Copy\Flac\flac.exe
Дополнительные параметры : -6 -V -T "ARTIST=%a" -T "TITLE=%t" -T "ALBUM=%g" -T "DATE=%y" -T "TRACKNUMBER=%n" -T "GENRE=%m" -T "COMMENT=%e" %s -o %d
TOC извлечённого CD
Трек | Старт | Длительность | Начальный сектор | Конечный сектор
---------------------------------------------------------------------
1 | 0:00.00 | 3:42.60 | 0 | 16709
2 | 3:42.60 | 2:25.60 | 16710 | 27644
3 | 6:08.45 | 1:40.27 | 27645 | 35171
4 | 7:48.72 | 2:48.51 | 35172 | 47822
5 | 10:37.48 | 2:21.40 | 47823 | 58437
6 | 12:59.13 | 2:53.17 | 58438 | 71429
7 | 15:52.30 | 2:36.55 | 71430 | 83184
8 | 18:29.10 | 2:23.61 | 83185 | 93970
9 | 20:52.71 | 3:10.35 | 93971 | 108255
10 | 24:03.31 | 2:20.24 | 108256 | 118779
11 | 26:23.55 | 2:23.42 | 118780 | 129546
12 | 28:47.22 | 6:25.36 | 129547 | 158457
13 | 35:12.58 | 3:43.35 | 158458 | 175217
14 | 38:56.18 | 5:40.49 | 175218 | 200766
15 | 44:36.67 | 4:25.23 | 200767 | 220664
16 | 49:02.15 | 3:01.02 | 220665 | 234241
17 | 52:03.17 | 2:38.54 | 234242 | 246145
18 | 54:41.71 | 2:39.17 | 246146 | 258087
Характеристики диапазона извлечения и сообщения об ошибках
Выбранный диапазон
Имя файла C:\EAC\Sandrine Piau & Jos Van Immerseel - Debussy\Sandrine Piau & Jos Van Immerseel - Debussy.wav
Пиковый уровень 97.7 %
Качество диапазона 99.9 %
CRC копии 181F2160
Копирование... OK
Ошибок не произошло
AccurateRip: сводка
Трек 1 точное извлечение (доверие 12) [FEEFBBEC]
Трек 2 точное извлечение (доверие 12) [80859382]
Трек 3 точное извлечение (доверие 12) [0C34E925]
Трек 4 точное извлечение (доверие 12) [1446DD98]
Трек 5 точное извлечение (доверие 12) [A76F054E]
Трек 6 точное извлечение (доверие 12) [288DDA3F]
Трек 7 точное извлечение (доверие 12) [700DD37D]
Трек 8 точное извлечение (доверие 12) [8A03F064]
Трек 9 точное извлечение (доверие 12) [48968B79]
Трек 10 точное извлечение (доверие 12) [287E075A]
Трек 11 точное извлечение (доверие 12) [57A07B3E]
Трек 12 точное извлечение (доверие 12) [DE26438E]
Трек 13 точное извлечение (доверие 12) [07EEEA60]
Трек 14 точное извлечение (доверие 12) [D86FB60C]
Трек 15 точное извлечение (доверие 12) [9DD66791]
Трек 16 точное извлечение (доверие 11) [93BF4AEE]
Трек 17 точное извлечение (доверие 12) [3D2D9662]
Трек 18 точное извлечение (доверие 12) [09534B01]
Все треки извлечены точно
Конец отчёта

Лог проверки качества


Скриншот спектра частот




Показать сообщения:    

Текущее время: 08-Дек 12:58

Часовой пояс: UTC + 3


Вы не можете начинать темы
Вы не можете отвечать на сообщения
Вы не можете редактировать свои сообщения
Вы не можете удалять свои сообщения
Вы не можете голосовать в опросах
Вы не можете прикреплять файлы к сообщениям
Вы не можете скачивать файлы