Ален Делон: интервью по случаю выхода фильма Военврач / Alain Delon: A l'occasion de la sortie de Le Toubib (Селим Сассон / Selim Sasson) [1978, документальный, биографический, TVRip] VO (Andi999) + Original (Fre) + Sub Rus (Lisok)


Статистика раздачи [Обновить пиров]
Размер:  137 MB   |    Зарегистрирован:  8 месяцев 20 дней   |    Скачан:  0 раз

Полного источника не было: Никогда

Личеров:  3  [  0 KB/s  ]   Подробная статистика пиров
 
   
 
 
 

[Цитировать]

Ален Делон: интервью по случаю выхода фильма "Военврач"
Alain Delon: À l'occasion de la sortie de "Le Toubib"- Дата/Год выпуска: 1978
Страна: Бельгия
Жанр: документальный, биографический
Продолжительность: 00:06:37
Перевод: Любительский (одноголосый закадровый) озвучка Andi999 по субтитрам Lisok
Русские субтитры: есть
Формат субтитров: softsub (SRT)
Доп. информация о субтитрах: перевод Lisok , инициатор Aleks Punk
Оригинальная аудиодорожка: французский
Режиссер: Селим Сассон / Sélim Sasson
Телеканал: RTBF
Описание: Интервью Алена Делона в программе Le carrousel aux souvenirs по случаю скорого выхода фильма-антиутопии "Военврач" (1979) режиссера Пьера Гранье-Деферра. Делон рассказывает о себе, карьере в качестве актера и продюсера, предстоящих съемках в американском фильме "Конкорд: Аэропорт '79". Программа вышла 4 декабря 1978 года. Интервью берет журналист, кинокритик и искусствовед Селим Сассон / Sélim Sasson.
Доп. информация: За предоставленный материал благодарность Aleks Punk

качество: TVRip
формат: MKV
Видео: AVC (H.264), 640x480 (1.33:1), 30 fps, ~2500 kbps avg, 0.271 bit/pixel
Аудио 1: AC3, 2 ch, 48 kHz, ~192.00 kbps avg - русский
Аудио 2: AC3, 2 ch, 48 kHz, ~192.00 kbps avg - французский

Пример субтитров

1
00:00:00,200 --> 00:00:05,080
Итак, в этом фильме, с одной
стороны, есть немного фантастики.
2
00:00:05,080 --> 00:00:07,310
- Да.
- С другой стороны,
3
00:00:07,310 --> 00:00:11,330
есть любовная история.
Что для вас важнее?
4
00:00:12,750 --> 00:00:16,040
Поначалу, что меня заинтересовало,
что я искал, - это любовная история.
5
00:00:16,040 --> 00:00:18,260
Почему любовная история?
Потому что уже какое-то время
6
00:00:18,260 --> 00:00:20,440
мне казалось,
что я понял и почувствовал
7
00:00:20,440 --> 00:00:23,350
со стороны зрителя -
8
00:00:23,570 --> 00:00:25,350
зрителя вообще и
9
00:00:25,350 --> 00:00:29,460
зрителя интересующегося
и следящего за Аленом Делоном,
10
00:00:29,820 --> 00:00:33,040
что ему хочется увидеть
Делона в любовной истории.
11
00:00:33,150 --> 00:00:37,370
Вернуться, если хотите, к некоему
романтизму персонажей Делона,
12
00:00:37,460 --> 00:00:40,750
возможно даже,
уйти от персонажей...
13
00:00:40,970 --> 00:00:44,200
скажем так, не стереотипных,
а типичных
14
00:00:44,660 --> 00:00:48,400
для мифа Делона, т.е. хорошо
знакомых вам персонажей:
15
00:00:48,571 --> 00:00:51,080
полицейского, жандарма
или грабителя.
16
00:00:51,310 --> 00:00:53,880
Короче - в истории немного
более сентиментальной,
17
00:00:53,880 --> 00:00:57,240
видеть Делона в компании
молодой женщины; в истории,
18
00:00:57,240 --> 00:00:59,060
скажем так,
нежной и эмоциональной.
19
00:00:59,060 --> 00:01:01,970
Именно это и подтолкнуло меня
сниматься в этом фильме
20
00:01:01,970 --> 00:01:06,550
и участвовать в этой истории.
Главным образом - по запросу публики.

MediaInfo

Общее
Уникальный идентификатор : 227271095251834445050381371342727285622 (0xAAFAD21EE519EA6EBA08B5D39A6E0B76)
Полное имя : E:\My Torrents 2\[apreder]Alain_Delon_A_l'occasion_de_la_sortie_de_Le_Toubib(1978)TVRip.mkv
Формат : Matroska
Версия формата : Version 2
Размер файла : 137 Мбайт
Продолжительность : 6 м. 37 с.
Общий поток : 2884 Кбит/сек
Дата кодирования : UTC 2014-12-04 14:19:26
Программа кодирования : mkvmerge v7.3.0 ('Nouages') 64bit built on Oct 22 2014 18:53:34
Библиотека кодирования : libebml v1.3.0 + libmatroska v1.4.1
Видео
Идентификатор : 1
Формат : AVC
Формат/Информация : Advanced Video Codec
Профиль формата : High@L4.1
Параметр CABAC формата : Да
Параметр ReFrames формата : 16 кадров
Идентификатор кодека : V_MPEG4/ISO/AVC
Продолжительность : 6 м. 37 с.
Битрейт : 2500 Кбит/сек
Ширина : 640 пикселей
Высота : 480 пикселей
Соотношение сторон : 4:3
Режим частоты кадров : Постоянный
Частота кадров : 30,000 кадров/сек
Цветовое пространство : YUV
Субдискретизация насыщенности : 4:2:0
Битовая глубина : 8 бит
Тип развёртки : Прогрессивная
Бит/(Пиксели*Кадры) : 0.271
Размер потока : 116 Мбайт (85%)
Библиотека кодирования : x264 core 142 r2431 ac76440
Настройки программы : cabac=1 / ref=16 / deblock=1:-1:-1 / analyse=0x3:0x133 / me=umh / subme=10 / psy=1 / psy_rd=1.00:0.15 / mixed_ref=1 / me_range=24 / chroma_me=1 / trellis=2 / 8x8dct=1 / cqm=0 / deadzone=21,11 / fast_pskip=1 / chroma_qp_offset=-3 / threads=6 / lookahead_threads=1 / sliced_threads=0 / nr=0 / decimate=1 / interlaced=0 / bluray_compat=0 / constrained_intra=0 / bframes=8 / b_pyramid=2 / b_adapt=2 / b_bias=0 / direct=3 / weightb=1 / open_gop=0 / weightp=2 / keyint=300 / keyint_min=30 / scenecut=40 / intra_refresh=0 / rc_lookahead=60 / rc=2pass / mbtree=1 / bitrate=2500 / ratetol=1.0 / qcomp=0.60 / qpmin=0 / qpmax=69 / qpstep=4 / cplxblur=20.0 / qblur=0.5 / vbv_maxrate=62500 / vbv_bufsize=78125 / nal_hrd=none / filler=0 / ip_ratio=1.40 / aq=1:1.00
Default : Да
Forced : Нет
Аудио #1
Идентификатор : 2
Формат : AC-3
Формат/Информация : Audio Coding 3
Расширение режима : CM (complete main)
Параметр Endianness формата : Big
Идентификатор кодека : A_AC3
Продолжительность : 6 м. 37 с.
Вид битрейта : Постоянный
Битрейт : 192 Кбит/сек
Каналы : 2 канала
Расположение каналов : Front: L R
Частота : 48,0 КГц
Битовая глубина : 16 бит
Метод сжатия : С потерями
Размер потока : 9,11 Мбайт (7%)
Язык : Russian
Default : Да
Forced : Нет
Аудио #2
Идентификатор : 3
Формат : AC-3
Формат/Информация : Audio Coding 3
Расширение режима : CM (complete main)
Параметр Endianness формата : Big
Идентификатор кодека : A_AC3
Продолжительность : 6 м. 37 с.
Вид битрейта : Постоянный
Битрейт : 192 Кбит/сек
Каналы : 2 канала
Расположение каналов : Front: L R
Частота : 48,0 КГц
Битовая глубина : 16 бит
Метод сжатия : С потерями
Размер потока : 9,11 Мбайт (7%)
Язык : French
Default : Нет
Forced : Нет
Текст
Идентификатор : 4
Формат : UTF-8
Идентификатор кодека : S_TEXT/UTF8
Идентификатор кодека/Информация : UTF-8 Plain Text
Язык : Russian
Default : Нет
Forced : Нет

Скриншоты

Резервные скриншоты

-[1'666]
[teatrix.ru].t19029.torrent 
Торрент: Зарегистрирован [ 2016-03-18 12:40 ] · B2D5F1DA95FE06A4479535DFA7C28EABD7F55928

Скачать .torrent

Скачать

11 KB

Статус: проверено
Скачан: 0 раз
Размер: 137 MB
terms.php



Быстрый ответ

Имя:

      
Для отправки сообщений необходимо включить JavaScript
Показать сообщения:    

Текущее время: 07-Дек 13:41

Часовой пояс: UTC + 3


Вы можете начинать темы
Вы можете отвечать на сообщения
Вы не можете редактировать свои сообщения
Вы не можете удалять свои сообщения
Вы не можете голосовать в опросах
Вы не можете прикреплять файлы к сообщениям
Вы можете скачивать файлы