(Classical) Михаэль Гайдн – Месса C-dur «Испанская» MH 422 / Michael Haydn – Missa Hispanica (Maria Zadori, Judit Nemeth, Peter Drucker, Istvan Kovacs; Debrecen Kodaly Chorus,Capella Savaria; Lajos Szucs, Pal Nemeth)- 1998, FLAC (image+.cue) lossless


Статистика раздачи [Обновить пиров]
Размер:  271 MB   |    Зарегистрирован:  8 месяцев 21 день   |    Скачан:  0 раз

Полного источника не было: Никогда

Личеров:  3  [  0 KB/s  ]   Подробная статистика пиров
 
   
 
 
 

[Цитировать]

Михаэль Гайдн – Месса C-dur «Испанская» MH 422 / Michael Haydn – Missa Hispanica (Mária Zádori, Judit Németh, Péter Drucker, István Kovács; Debrecen Kodály Chorus, Capella Savaria; Lajos Szűcs, Pál Németh)
Жанр: Classical
Страна-производитель диска: Австрия
Год издания диска: 1998
Издатель (лейбл): Hungaroton Classic
Номер по каталогу: HCD 31765
Дата записи: 10 — 12 октября 1997 г., Дебрецен.
Аудиокодек: FLAC
Тип рипа: image+.cue
Битрейт аудио: lossless
Продолжительность: 00:57:56
Источник: odeonmusic
Наличие сканов в содержимом раздачи: да
Треклист:
Иоганн Михаэль Гайдн (1737 — 1806).
Месса C-dur «Испанская» (Missa Hispanica) для солистов (SATB), двух смешанных хоров и оркестра, MH 422 (1786).
I. Kyrie.
01. Largo. — Allegro [07:02].
II. Gloria.
02. Gloria in excelsis Deo. Allegro con spirito. — [03:47].
03. Qui tollis. Adagio. — [05:08].
04. Quoniam tu solus. Vivace [05:01].
III. Credo.
05. Credo in unum Deum. Vivace. — [03:21].
06. Et incarnatus. Adagio molto. — [06:37].
07. Et resurrexit. Allegro spiritoso [08:01].
IV. Sanctus.
08. Sanctus. Andante con moto. — Allegro [02:18].
V. Benedictus.
09. Benedictus. Allegro moderato. — Allegro [08:06].
VI. Agnus Dei.
10. Agnus Dei. Largo. — [04:42].
11. Dona nobis. Allegro con fuoco [03:53].
Исполнители:
Mária Zádori (сопрано),
Judit Németh (меццо-сопрано),
Péter Drucker (тенор),
István Kovács (бас).
Debrecen Kodály Chorus (хормейстер Lajos Szűcs).
Capella Savaria, на инструментах эпохи.
Дирижер Pál Németh.

Содержание индексной карты (.CUE)

REM GENRE Classical
REM DISCID 990D950B
REM COMMENT "ExactAudioCopy v1.0b3"
PERFORMER "Pal Nemeth"
TITLE "Michael Haydn – Missa Hispanica, MH 422 – Pal Nemeth"
FILE "Michael Haydn – Missa Hispanica, MH 422 – Pal Nemeth.flac" WAVE
TRACK 01 AUDIO
TITLE "Missa Hispanica in C major, MH 422 - I. Kyrie. Largo - Allegro"
PERFORMER "Pal Nemeth"
FLAGS DCP
INDEX 01 00:00:00
TRACK 02 AUDIO
TITLE "Missa Hispanica in C major, MH 422 - II. Gloria - Gloria in excelsis Deo. Allegro con spirito -"
PERFORMER "Pal Nemeth"
FLAGS DCP
INDEX 01 07:04:20
TRACK 03 AUDIO
TITLE "Missa Hispanica in C major, MH 422 - II. Gloria - Qui tollis. Adagio -"
PERFORMER "Pal Nemeth"
FLAGS DCP
INDEX 01 10:50:63
TRACK 04 AUDIO
TITLE "Missa Hispanica in C major, MH 422 - II. Gloria - Quoniam tu solus. Vivace"
PERFORMER "Pal Nemeth"
FLAGS DCP
INDEX 01 15:58:56
TRACK 05 AUDIO
TITLE "Missa Hispanica in C major, MH 422 - III. Credo - Credo in unum Deum. Vivace -"
PERFORMER "Pal Nemeth"
FLAGS DCP
INDEX 01 20:59:34
TRACK 06 AUDIO
TITLE "Missa Hispanica in C major, MH 422 - III. Credo - Et incarnatus. Adagio molto -"
PERFORMER "Pal Nemeth"
FLAGS DCP
INDEX 01 24:20:35
TRACK 07 AUDIO
TITLE "Missa Hispanica in C major, MH 422 - III. Credo - Et resurrexit. Allegro spiritoso"
PERFORMER "Pal Nemeth"
FLAGS DCP
INDEX 01 30:57:23
TRACK 08 AUDIO
TITLE "Missa Hispanica in C major, MH 422 - IV. Sanctus. Andante con moto"
PERFORMER "Pal Nemeth"
FLAGS DCP
INDEX 01 38:58:25
TRACK 09 AUDIO
TITLE "Missa Hispanica in C major, MH 422 - V. Benedictus. Allegro moderato - Allegro"
PERFORMER "Pal Nemeth"
FLAGS DCP
INDEX 01 41:16:30
TRACK 10 AUDIO
TITLE "Missa Hispanica in C major, MH 422 - VI. Agnus Dei - Agnus Dei. Largo -"
PERFORMER "Pal Nemeth"
FLAGS DCP
INDEX 01 49:21:74
TRACK 11 AUDIO
TITLE "Missa Hispanica in C major, MH 422 - VI. Agnus Dei - Dona nobis. Allegro con fuoco"
PERFORMER "Pal Nemeth"
FLAGS DCP
INDEX 01 54:04:61

Вариант индексной карты (.CUE) с подправленными зазорами

REM GENRE Classical
REM DISCID 990D950B
REM COMMENT "ExactAudioCopy v1.0b3"
PERFORMER "Pal Nemeth"
TITLE "Michael Haydn – Missa Hispanica, MH 422 – Pal Nemeth"
FILE "Michael Haydn – Missa Hispanica, MH 422 – Pal Nemeth.flac" WAVE
TRACK 01 AUDIO
FLAGS DCP
TITLE "Missa Hispanica in C major, MH 422 - I. Kyrie. Largo - Allegro"
PERFORMER "Pal Nemeth"
INDEX 00 00:00:00
INDEX 01 00:03:60
TRACK 02 AUDIO
FLAGS DCP
TITLE "Missa Hispanica in C major, MH 422 - II. Gloria - Gloria in excelsis Deo. Allegro con spirito -"
PERFORMER "Pal Nemeth"
INDEX 01 07:04:20
TRACK 03 AUDIO
FLAGS DCP
TITLE "Missa Hispanica in C major, MH 422 - II. Gloria - Qui tollis. Adagio -"
PERFORMER "Pal Nemeth"
INDEX 00 10:49:06
INDEX 01 10:50:63
TRACK 04 AUDIO
FLAGS DCP
TITLE "Missa Hispanica in C major, MH 422 - II. Gloria - Quoniam tu solus. Vivace"
PERFORMER "Pal Nemeth"
INDEX 01 15:58:56
TRACK 05 AUDIO
FLAGS DCP
TITLE "Missa Hispanica in C major, MH 422 - III. Credo - Credo in unum Deum. Vivace -"
PERFORMER "Pal Nemeth"
INDEX 01 20:59:34
TRACK 06 AUDIO
FLAGS DCP
TITLE "Missa Hispanica in C major, MH 422 - III. Credo - Et incarnatus. Adagio molto -"
PERFORMER "Pal Nemeth"
INDEX 01 24:20:35
TRACK 07 AUDIO
FLAGS DCP
TITLE "Missa Hispanica in C major, MH 422 - III. Credo - Et resurrexit. Allegro spiritoso"
PERFORMER "Pal Nemeth"
INDEX 01 30:57:23
TRACK 08 AUDIO
FLAGS DCP
TITLE "Missa Hispanica in C major, MH 422 - IV. Sanctus. Andante con moto"
PERFORMER "Pal Nemeth"
INDEX 01 38:58:25
TRACK 09 AUDIO
FLAGS DCP
TITLE "Missa Hispanica in C major, MH 422 - V. Benedictus. Allegro moderato - Allegro"
PERFORMER "Pal Nemeth"
INDEX 01 41:16:30
TRACK 10 AUDIO
FLAGS DCP
TITLE "Missa Hispanica in C major, MH 422 - VI. Agnus Dei - Agnus Dei. Largo -"
PERFORMER "Pal Nemeth"
INDEX 01 49:21:74
TRACK 11 AUDIO
FLAGS DCP
TITLE "Missa Hispanica in C major, MH 422 - VI. Agnus Dei - Dona nobis. Allegro con fuoco"
PERFORMER "Pal Nemeth"
INDEX 01 54:04:61

Отчет audiochecker

AUDIOCHECKER v2.0 beta (build 457) - by Dester - opdester@freemail.hu
~~~~~~~~~~~~~~~~~~~~~~~~~~~~~~~~~~
-=== DO NOT EDIT THIS FILE! ===-
Path: ...\Michael Haydn – Missa Hispanica, MH 422 (Pal Nemeth)
1 -=- Michael Haydn – Missa Hispanica, MH 422 – Pal Nemeth.flac -=- CDDA (100%)
181045156
-Лога отчего-то нет.
[teatrix.ru].t19030.torrent 
Торрент: Зарегистрирован [ 2016-03-18 12:42 ] · ED3FF382362D21B01F7D04DEE66C72237219AF3D

Скачать .torrent

Скачать

12 KB

Статус: проверено
Скачан: 0 раз
Размер: 271 MB
terms.php



Быстрый ответ

Имя:

      
Для отправки сообщений необходимо включить JavaScript
Показать сообщения:    

Текущее время: 08-Дек 23:10

Часовой пояс: UTC + 3


Вы можете начинать темы
Вы можете отвечать на сообщения
Вы не можете редактировать свои сообщения
Вы не можете удалять свои сообщения
Вы не можете голосовать в опросах
Вы не можете прикреплять файлы к сообщениям
Вы можете скачивать файлы