(Classical / Вокальная музыка) Three Tenors (Pavarotti, Carreras, Domingo) ‎– The Original Three Tenors In Concert Mehta - 1990,(Meyerbeer,Puccini,Lehаr и др.)[Delluxe Gold Edition (Hardback Souvenir Picture Book)], FLAC (tracks+.cue) lossless


 

[Цитировать]

Three Tenors ‎– The Original Three Tenors In Concert Mehta
Жанр: Classical / Вокальная музыка
Стил :Opera, Modern, Romantic
Страна-производитель диска: Germany /UK
Год издания диска: 1990
Издатель (лейбл): DECCA
Номер по каталогу: 452 600-2 / DH PY 831
Дата записи: 07.07. 1990
Аудиокодек: FLAC
Тип рипа: tracks+.cue
Битрейт аудио: lossless
Продолжительность: 1:08:01.50
Источник: Мой рип и диск
Наличие сканов в содержимом раздачи: да
Треклист:
1 – José Carreras / Lamento Di Federico
2 – Placido Domingo / O, Paradis!
3 – Luciano Pavarotti / Recondita Armonia
4 – Placido Domingo /Dein Ist Mein Ganzes Herz
5 – Luciano Pavarotti / Rondine Al Nido
6 – José Carreras / Core 'Ngrato
7 – Luciano Pavarotti / Torna A Surriento
8 – José Carreras / Granada
9 – Placido Domingo / No Puede Ser
10 – José Carreras /L'improvviso
11 – Placido Domingo / E Lucevan Le Stelle
12 – Luciano Pavarotti /Nessun Dorma
13 – Carreras*, Domingo*, Pavarotti* / Finale Medley: Maria/Tonight/'O Paese D' 'O Sole/Cielito Lindo (Trad.)
14 – Carreras*, Domingo*, Pavarotti* /Finale Medley: Memory/Ochi Tchorniye/Caminito/La Vie En Rose
15 – Carreras* / Domingo*, Pavarotti* /Finale Medley: Mattinata/Wien, Wien, Nur Du Allein/Amapola/'O Sole Mio
16 – Carreras*, Domingo*, Pavarotti* / Encore: 'O Sole Mio
17 – Carreras*, Domingo*, Pavarotti* / Encore: Nessun Dorma
Исполнители:
Luciano Pavarotti Vocal
Placido Domingo Vocal
Jose Carreras Vocal
Orchestra del Maggio Musicale Fiorentino
Orchestra del Teatro dell'Opera di Roma

Conducted by Zubin Mehta
Composers:
Cilea, Meyerbeer, Puccini,Lehаr, Cardillo,
Curtis, Lara, Sorozábal, Giordano, Capua

Notes :
Terme Di Caracalla, Roma 7th july 1990

Лог создания рипа

Exact Audio Copy V1.0 beta 3 from 29. August 2011
EAC extraction logfile from 26. August 2014, 16:58
The Three Tenors / The Three Tenors in Concert
Used drive : PIONEER DVDRW DVR-K17B Adapter: 0 ID: 0
Read mode : Secure
Utilize accurate stream : Yes
Defeat audio cache : Yes
Make use of C2 pointers : No
Read offset correction : 48
Overread into Lead-In and Lead-Out : No
Fill up missing offset samples with silence : Yes
Delete leading and trailing silent blocks : No
Null samples used in CRC calculations : Yes
Used interface : Native Win32 interface for Win NT & 2000
Gap handling : Appended to previous track
Used output format : User Defined Encoder
Selected bitrate : 1024 kBit/s
Quality : High
Add ID3 tag : No
Command line compressor : C:\Program Files\Exact Audio Copy\Flac\flac.exe
Additional command line options : -8 -V -T "ARTIST=%artist%" -T "TITLE=%title%" -T "ALBUM=%albumtitle%" -T "DATE=%year%" -T "TRACKNUMBER=%tracknr%" -T "TOTALTRACKS=%numtracks%" -T "GENRE=%genre%" -T "ALBUMARTIST=%albumartist%" -T "ALBUM ARTIST=%albumartist%" -T "COMMENT=EAC Secure Mode, Test & Copy, AccurateRip, FLAC -8" %source%
TOC of the extracted CD
Track | Start | Length | Start sector | End sector
---------------------------------------------------------
1 | 0:00.33 | 4:21.50 | 33 | 19657
2 | 4:22.08 | 3:12.00 | 19658 | 34057
3 | 7:34.08 | 2:37.25 | 34058 | 45857
4 | 10:11.33 | 3:36.12 | 45858 | 62069
5 | 13:47.45 | 3:35.13 | 62070 | 78207
6 | 17:22.58 | 3:28.17 | 78208 | 93824
7 | 20:51.00 | 2:52.08 | 93825 | 106732
8 | 23:43.08 | 3:41.62 | 106733 | 123369
9 | 27:24.70 | 2:43.63 | 123370 | 135657
10 | 30:08.58 | 5:11.62 | 135658 | 159044
11 | 35:20.45 | 2:40.00 | 159045 | 171044
12 | 38:00.45 | 3:05.13 | 171045 | 184932
13 | 41:05.58 | 5:31.50 | 184933 | 209807
14 | 46:37.33 | 6:54.12 | 209808 | 240869
15 | 53:31.45 | 8:06.63 | 240870 | 277382
16 | 61:38.33 | 2:53.37 | 277383 | 290394
17 | 64:31.70 | 3:30.13 | 290395 | 306157
Track 1
Filename D:\Georgi My RIPS\The Three Tenors & Metha\01 - Il Lamento Di Federico.wav
Pre-gap length 0:00:02.33
Peak level 78.3 %
Extraction speed 2.0 X
Track quality 100.0 %
Test CRC 26244C7E
Copy CRC 26244C7E
Accurately ripped (confidence 4) [4EF3D68C] (AR v1)
Copy OK
Track 2
Filename D:\Georgi My RIPS\The Three Tenors & Metha\02 - O paradis.wav
Peak level 93.1 %
Extraction speed 2.1 X
Track quality 100.0 %
Test CRC BB57BC56
Copy CRC BB57BC56
Accurately ripped (confidence 4) [5A50E9D0] (AR v1)
Copy OK
Track 3
Filename D:\Georgi My RIPS\The Three Tenors & Metha\03 - Recondita Armonia.wav
Peak level 91.5 %
Extraction speed 1.8 X
Track quality 99.9 %
Test CRC 57E719C3
Copy CRC 57E719C3
Accurately ripped (confidence 4) [240CD9B5] (AR v1)
Copy OK
Track 4
Filename D:\Georgi My RIPS\The Three Tenors & Metha\04 - Dein Ist Mein Ganzes Herz.wav
Peak level 77.7 %
Extraction speed 2.4 X
Track quality 100.0 %
Test CRC 4ABCA7C1
Copy CRC 4ABCA7C1
Accurately ripped (confidence 4) [698450B8] (AR v1)
Copy OK
Track 5
Filename D:\Georgi My RIPS\The Three Tenors & Metha\05 - Rondine Al Nido.wav
Peak level 90.5 %
Extraction speed 2.5 X
Track quality 100.0 %
Test CRC ED5FE205
Copy CRC ED5FE205
Accurately ripped (confidence 4) [DB2A6E93] (AR v1)
Copy OK
Track 6
Filename D:\Georgi My RIPS\The Three Tenors & Metha\06 - Core 'Ngrato.wav
Peak level 91.6 %
Extraction speed 2.6 X
Track quality 100.0 %
Test CRC 8A0D255C
Copy CRC 8A0D255C
Accurately ripped (confidence 4) [1761AD02] (AR v1)
Copy OK
Track 7
Filename D:\Georgi My RIPS\The Three Tenors & Metha\07 - Torna A Surriento.wav
Peak level 99.2 %
Extraction speed 2.7 X
Track quality 100.0 %
Test CRC 707FF5D1
Copy CRC 707FF5D1
Accurately ripped (confidence 4) [D597122E] (AR v1)
Copy OK
Track 8
Filename D:\Georgi My RIPS\The Three Tenors & Metha\08 - Granada.wav
Peak level 95.1 %
Extraction speed 2.9 X
Track quality 100.0 %
Test CRC 2C672ED3
Copy CRC 2C672ED3
Accurately ripped (confidence 4) [A52DC47C] (AR v1)
Copy OK
Track 9
Filename D:\Georgi My RIPS\The Three Tenors & Metha\09 - No Puede Ser.wav
Peak level 96.5 %
Extraction speed 2.8 X
Track quality 100.0 %
Test CRC C48BE701
Copy CRC C48BE701
Accurately ripped (confidence 4) [CC023BC5] (AR v1)
Copy OK
Track 10
Filename D:\Georgi My RIPS\The Three Tenors & Metha\10 - L'improvviso.wav
Peak level 93.0 %
Extraction speed 3.2 X
Track quality 100.0 %
Test CRC 433F4E8C
Copy CRC 433F4E8C
Accurately ripped (confidence 4) [CA85A03B] (AR v1)
Copy OK
Track 11
Filename D:\Georgi My RIPS\The Three Tenors & Metha\11 - E Lucevan Le Stelle.wav
Peak level 82.9 %
Extraction speed 2.5 X
Track quality 99.9 %
Test CRC 1AAA3031
Copy CRC 1AAA3031
Accurately ripped (confidence 4) [7EF76902] (AR v1)
Copy OK
Track 12
Filename D:\Georgi My RIPS\The Three Tenors & Metha\12 - Nessun Dorma - Finale.wav
Peak level 100.0 %
Extraction speed 3.2 X
Track quality 100.0 %
Test CRC B6F13E94
Copy CRC B6F13E94
Accurately ripped (confidence 4) [029A1052] (AR v1)
Copy OK
Track 13
Filename D:\Georgi My RIPS\The Three Tenors & Metha\13 - Maria, Tonight, 'O Paese D' 'O Sole, Cielito Lindo.wav
Peak level 88.8 %
Extraction speed 3.2 X
Track quality 99.9 %
Test CRC FAD4413E
Copy CRC FAD4413E
Accurately ripped (confidence 2) [6255FE53] (AR v2)
Copy OK
Track 14
Filename D:\Georgi My RIPS\The Three Tenors & Metha\14 - Memory, Ochi Tchorniye, Caminito, La Vie En Rose.wav
Peak level 81.0 %
Extraction speed 3.8 X
Track quality 100.0 %
Test CRC F0A5EA56
Copy CRC F0A5EA56
Accurately ripped (confidence 2) [E23BDD61] (AR v2)
Copy OK
Track 15
Filename D:\Georgi My RIPS\The Three Tenors & Metha\15 - Mattinata, Wien Wien Nur Du Allein, Ampola, 'O Sole Mio.wav
Peak level 100.0 %
Extraction speed 4.0 X
Track quality 100.0 %
Test CRC 5EC86D65
Copy CRC 5EC86D65
Accurately ripped (confidence 2) [F9C100FE] (AR v2)
Copy OK
Track 16
Filename D:\Georgi My RIPS\The Three Tenors & Metha\16 - Encore - 'O Sole Mio.wav
Peak level 97.0 %
Extraction speed 3.7 X
Track quality 100.0 %
Test CRC D1FE1C9E
Copy CRC D1FE1C9E
Accurately ripped (confidence 2) [B0A6E2C5] (AR v2)
Copy OK
Track 17
Filename D:\Georgi My RIPS\The Three Tenors & Metha\17 - Encore - Nessun Dorma.wav
Peak level 100.0 %
Extraction speed 3.3 X
Track quality 99.9 %
Test CRC A171C507
Copy CRC A171C507
Accurately ripped (confidence 2) [CD4ADA99] (AR v2)
Copy OK
All tracks accurately ripped
No errors occurred
End of status report
==== Log checksum 5B83471714902497A9581479CFB55AAB1718DFB91222F16EAE412B8D4E745093 ====

Содержание индексной карты (.CUE)

REM GENRE Opera
REM DATE 1990
REM DISCID E00FF211
REM COMMENT "ExactAudioCopy v1.0b3"
CATALOG 0028943043328
PERFORMER "The Three Tenors"
TITLE "The Three Tenors in Concert"
FILE "01 - Il Lamento Di Federico.wav" WAVE
TRACK 01 AUDIO
TITLE "Il Lamento Di Federico"
PERFORMER "The Three Tenors"
ISRC GBF079040301
PREGAP 00:00:33
INDEX 01 00:00:00
FILE "02 - O paradis.wav" WAVE
TRACK 02 AUDIO
TITLE "O paradis"
PERFORMER "The Three Tenors"
ISRC GBF079040302
INDEX 01 00:00:00
FILE "03 - Recondita Armonia.wav" WAVE
TRACK 03 AUDIO
TITLE "Recondita Armonia"
PERFORMER "The Three Tenors"
ISRC GBF079040303
INDEX 01 00:00:00
FILE "04 - Dein Ist Mein Ganzes Herz.wav" WAVE
TRACK 04 AUDIO
TITLE "Dein Ist Mein Ganzes Herz"
PERFORMER "The Three Tenors"
ISRC GBF079040304
INDEX 01 00:00:00
FILE "05 - Rondine Al Nido.wav" WAVE
TRACK 05 AUDIO
TITLE "Rondine Al Nido"
PERFORMER "The Three Tenors"
ISRC GBF079040305
INDEX 01 00:00:00
FILE "06 - Core 'Ngrato.wav" WAVE
TRACK 06 AUDIO
TITLE "Core 'Ngrato"
PERFORMER "The Three Tenors"
ISRC GBF079040306
INDEX 01 00:00:00
FILE "07 - Torna A Surriento.wav" WAVE
TRACK 07 AUDIO
TITLE "Torna A Surriento"
PERFORMER "The Three Tenors"
ISRC GBF079040307
INDEX 01 00:00:00
FILE "08 - Granada.wav" WAVE
TRACK 08 AUDIO
TITLE "Granada"
PERFORMER "The Three Tenors"
ISRC GBF079040308
INDEX 01 00:00:00
FILE "09 - No Puede Ser.wav" WAVE
TRACK 09 AUDIO
TITLE "No Puede Ser"
PERFORMER "The Three Tenors"
ISRC GBF079040309
INDEX 01 00:00:00
FILE "10 - L'improvviso.wav" WAVE
TRACK 10 AUDIO
TITLE "L'improvviso"
PERFORMER "The Three Tenors"
ISRC GBF079040310
INDEX 01 00:00:00
FILE "11 - E Lucevan Le Stelle.wav" WAVE
TRACK 11 AUDIO
TITLE "E Lucevan Le Stelle"
PERFORMER "The Three Tenors"
ISRC GBF079040311
INDEX 01 00:00:00
FILE "12 - Nessun Dorma - Finale.wav" WAVE
TRACK 12 AUDIO
TITLE "Nessun Dorma - Finale"
PERFORMER "The Three Tenors"
ISRC GBF079040312
INDEX 01 00:00:00
FILE "13 - Maria, Tonight, 'O Paese D' 'O Sole, Cielito Lindo.wav" WAVE
TRACK 13 AUDIO
TITLE "Maria, Tonight, 'O Paese D' 'O Sole, Cielito Lindo"
PERFORMER "The Three Tenors"
ISRC GBF079040313
INDEX 01 00:00:00
FILE "14 - Memory, Ochi Tchorniye, Caminito, La Vie En Rose.wav" WAVE
TRACK 14 AUDIO
TITLE "Memory, Ochi Tchorniye, Caminito, La Vie En Rose"
PERFORMER "The Three Tenors"
ISRC GBF079040314
INDEX 01 00:00:00
FILE "15 - Mattinata, Wien Wien Nur Du Allein, Ampola, 'O Sole Mio.wav" WAVE
TRACK 15 AUDIO
TITLE "Mattinata, Wien Wien Nur Du Allein, Ampola, 'O Sole Mio"
PERFORMER "The Three Tenors"
ISRC GBF079040315
INDEX 01 00:00:00
FILE "16 - Encore - 'O Sole Mio.wav" WAVE
TRACK 16 AUDIO
TITLE "Encore - 'O Sole Mio"
PERFORMER "The Three Tenors"
ISRC GBF079040316
INDEX 01 00:00:00
FILE "17 - Encore - Nessun Dorma.wav" WAVE
TRACK 17 AUDIO
TITLE "Encore - Nessun Dorma"
PERFORMER "The Three Tenors"
ISRC GBF079040317
INDEX 01 00:00:00

Лог проверки качества

-----------------------
DON'T MODIFY THIS FILE
-----------------------
PERFORMER: auCDtect Task Manager, ver. 1.6.0 RC1 build 1.6.0.1
Copyright (c) 2008-2010 y-soft. All rights reserved
http://y-soft.org
ANALYZER: auCDtect: CD records authenticity detector, version 0.8.2
Copyright (c) 2004 Oleg Berngardt. All rights reserved.
Copyright (c) 2004 Alexander Djourik. All rights reserved.
FILE: 17 - Encore - Nessun Dorma.flac
Size: 19908413 Hash: 3591A88A4E586F224D384AE372888704 Accuracy: -m0
Conclusion: CDDA 99%
Signature: 7917EFE68BFB5022524DC5D3AF1E6C21B7033050
FILE: 16 - Encore - 'O Sole Mio.flac
Size: 16923661 Hash: C758D49FA11C42653CD6063C5630C5D0 Accuracy: -m0
Conclusion: CDDA 99%
Signature: 83A696259763AACDBC83BE872D67C915BE6170B5
FILE: 15 - Mattinata, Wien Wien Nur Du Allein, Ampola, 'O Sole Mio.flac
Size: 46062578 Hash: 3361C54A693F9E57B395D163EDCE3547 Accuracy: -m0
Conclusion: CDDA 100%
Signature: F4FEE35B7B55C2E2FC2AFF02F1317C68728F46A1
FILE: 14 - Memory, Ochi Tchorniye, Caminito, La Vie En Rose.flac
Size: 36976755 Hash: 9CCE92F150AED84CE6FD47277A437944 Accuracy: -m0
Conclusion: CDDA 100%
Signature: 43310DC539555BEA22E4B7B8FAE9FC07E4899661
FILE: 13 - Maria, Tonight, 'O Paese D' 'O Sole, Cielito Lindo.flac
Size: 30660922 Hash: B447BBBFE51D23DC87380852E4727EA9 Accuracy: -m0
Conclusion: CDDA 100%
Signature: B2293550EFC571E233C86C116D0FA900143E5585
FILE: 12 - Nessun Dorma - Finale.flac
Size: 17542843 Hash: C64F223513B8DB82B6EEBB7D7EB2B247 Accuracy: -m0
Conclusion: CDDA 100%
Signature: AD2C1B09ACD2FE680EB7DB79D0BCB2DA5EF374B8
FILE: 11 - E Lucevan Le Stelle.flac
Size: 14081245 Hash: 1A5D554902822A6BD861BAE5CB00115B Accuracy: -m0
Conclusion: CDDA 100%
Signature: D08A1FF1DB25161AB41B3E283A25B79710988436
FILE: 10 - L'improvviso.flac
Size: 28046742 Hash: CDA212EC13FAC08FF7EFE4E36EF1D50A Accuracy: -m0
Conclusion: CDDA 100%
Signature: 876D94B604D82FE16D2693421A584FAE959ADC53
FILE: 09 - No Puede Ser.flac
Size: 14885342 Hash: C029138C42018FF8D39B90CE3685ECC6 Accuracy: -m0
Conclusion: CDDA 100%
Signature: AF786EF4E2AFF7950DD2179D495A8F3369A6830C
FILE: 08 - Granada.flac
Size: 21887208 Hash: F5AC00D0D4F305775D7029723BA49777 Accuracy: -m0
Conclusion: CDDA 99%
Signature: 5A6B7D34823D6D04D78FAF710A1951538C8FAD3C
FILE: 07 - Torna A Surriento.flac
Size: 16863623 Hash: BF0A56AB59471233B5B947CBE6E9B7FA Accuracy: -m0
Conclusion: CDDA 100%
Signature: C4430E7CC57186572510A4C438C82B66F461FA50
FILE: 06 - Core 'Ngrato.flac
Size: 19945510 Hash: F37231A2600B9D3147D4AE36A4463A20 Accuracy: -m0
Conclusion: CDDA 100%
Signature: F8393D4A17CAE087AE438206E13F283207129A13
FILE: 05 - Rondine Al Nido.flac
Size: 19037353 Hash: 5E909E9599109C02169BC67EE8013A0B Accuracy: -m0
Conclusion: CDDA 100%
Signature: 69BAC596596AD51F394084EC15E87C43FAEE3C3A
FILE: 04 - Dein Ist Mein Ganzes Herz.flac
Size: 20272172 Hash: 71A6E3D0ECD73900366BF648EBBEF3E5 Accuracy: -m0
Conclusion: CDDA 100%
Signature: B85D1702B5296A34F38844EC64B7E47D36AE305D
FILE: 03 - Recondita Armonia.flac
Size: 14088395 Hash: 9A9ABFA7773EA601BD8EAE13C7A2EBD9 Accuracy: -m0
Conclusion: CDDA 100%
Signature: EA5325E6862E96622767FF75C6AE8718FD4C6DBD
FILE: 02 - O paradis.flac
Size: 16317971 Hash: 19EE5C02F28AAF6446AD1F3FE9693526 Accuracy: -m0
Conclusion: CDDA 100%
Signature: 73E585EDAA2DA359BB256EAC02A26A99C01019EB
FILE: 01 - Il Lamento Di Federico.flac
Size: 21700224 Hash: 78927FFF271ECC230A85E8B95D736572 Accuracy: -m0
Conclusion: CDDA 100%
Signature: CCE99A17BA7911D2F8422238B04362C413BCF96D

Скриншот спектра частот & Tau Analyzer

Скриншот Back, CD & Matrix

Доп. информация: Printed in Germany. In a box-set containing hardback souvenir picture book, booklet and jewel cased cd. CD is Gold.
WEB Link : http://www.discogs.com/Three-Tenors-The-Original-Three-Tenors-In-Concert-Mehta-/release/4583132



Показать сообщения:    

Текущее время: 05-Дек 05:26

Часовой пояс: UTC + 3


Вы не можете начинать темы
Вы не можете отвечать на сообщения
Вы не можете редактировать свои сообщения
Вы не можете удалять свои сообщения
Вы не можете голосовать в опросах
Вы не можете прикреплять файлы к сообщениям
Вы не можете скачивать файлы