(Classical) Leonarda Brushtein, violino/Леонарда Бруштейн, скрипка (Schubert, Wilhelmi, Bloch, Brahms, Рахманинов, Paganini, Bartok, Saint-Saens, Gershwin, Римский-Корсаков, Kreisler, Sarasate, Scott, Heifetz) - 1998, FLAC (tracks+.cue) lossless


 

[Цитировать]

Leonarda Brushtein, violino/Леонарда Бруштейн, скрипка (Schuberth‎, Wilhelmi, Bloch, Brahms, Рахманинов, Paganini, Bartok, Saint-Saens, Gershwin, Римский-Корсаков, Kreisler, de Sarasate, Scott, Heifetz)
Жанр: Classical
Страна-производитель диска: Россия
Год издания диска: 1998
Издатель (лейбл): Леонарда Бруштейн
Номер по каталогу: ЛБ-001
Дата записи: 1997, 1998
Аудиокодек: FLAC
Тип рипа: tracks+.cue
Битрейт аудио: lossless
Продолжительность: 01:12:28
Источник: собственный рип
сайт-источник/ник/другое: Собственное собрание
Наличие сканов в содержимом раздачи: нет
Треклист:
1. Ф. Шуберт-Вильгельми ”Аве Мария"
2. Э. Блох ”Балшем"
3. П.Сарасате ”Андалузский романс"
4. И.Брамс ”Венгерский танец"
5. Н.Н. Римский-Корсаков ”Полёт шмеля"
6. С.Рахманинов ”Вокализ"
7. С.Рахманинов "Романс"
8. Н. Паганини "Кантабиле"
9. Ф. Крейслер "Муки Любви"
10. Ф. Крейслер "Маленький венский марш"
11. Скотт-Крейслер "В стране Лотоса"
12. Б.Барток "Румынские танцы"
13. К. Сенс-Санс "Лебедь"
14. Д.Гершвин "Колыбельная Клары”(из оперы “Порги и Бесс”)
15. Д.Гершвин-Я.Хейфиц"Плач" (из оперы “Порги и Бесс”)
16. Д.Гершвин-Я.Хейфиц"Танец" (из оперы “Порги и Бесс”)
Исполнители:
Народная артистка Российской Федерации Леонарда БРУШТЕЙН (1935-1999) , скрипка.
В записи альбома участвовали:
B.Соколов (фортепиано), треки 1-6;
А. Спивак (фортепиано), треки 7-12,15, 16;
В. Попов (синтезатор), треки 13, 14.

Лог создания рипа

X Lossless Decoder version 20140504 (147.0)
XLD extraction logfile from 2014-08-28 11:07:23 +0400
Леонарда БРУШТЕЙН / Леонарда БРУШТЕЙН. Скрипка
Used drive : PIONEER BD-RW BDR-207M (revision 1.21)
Media type : Pressed CD
Ripper mode : XLD Secure Ripper
Disable audio cache : OK for the drive with a cache less than 1375KiB
Make use of C2 pointers : NO
Read offset correction : 667
Max retry count : 20
Gap status : Analyzed, Appended
TOC of the extracted CD
Track | Start | Length | Start sector | End sector
---------------------------------------------------------
1 | 00:00:00 | 07:59:58 | 0 | 35982
2 | 07:59:58 | 06:58:49 | 35983 | 67381
3 | 14:58:32 | 04:46:62 | 67382 | 88893
4 | 19:45:19 | 03:04:44 | 88894 | 102737
5 | 22:49:63 | 01:00:71 | 102738 | 107308
6 | 23:50:59 | 04:23:37 | 107309 | 127070
7 | 28:14:21 | 06:06:47 | 127071 | 154567
8 | 34:20:68 | 03:31:00 | 154568 | 170392
9 | 37:51:68 | 03:27:03 | 170393 | 185920
10 | 41:18:71 | 02:51:55 | 185921 | 198800
11 | 44:10:51 | 06:16:07 | 198801 | 227007
12 | 50:26:58 | 06:55:74 | 227008 | 258206
13 | 57:22:57 | 04:13:24 | 258207 | 277205
14 | 61:36:06 | 03:00:74 | 277206 | 290779
15 | 64:37:05 | 05:01:37 | 290780 | 313391
16 | 69:38:42 | 02:50:29 | 313392 | 326170
AccurateRip Summary
Disc not found in AccurateRip DB.
All Tracks
Album gain : -5.01 dB
Peak : 1.000000
Statistics
Read error : 0
Jitter error (maybe fixed) : 0
Retry sector count : 0
Damaged sector count : 0
Track 01
Filename : /Users/artadmin/Music/01 Леонарда БРУШТЕЙН - Аве Мария.flac
Pre-gap length : 00:02:00
Track gain : -5.60 dB
Peak : 1.000000
CRC32 hash (test run) : 7AEC6558
CRC32 hash : 7AEC6558
CRC32 hash (skip zero) : D2DB165C
AccurateRip v1 signature : CC54D010
AccurateRip v2 signature : CA77AAFD
->Track not present in AccurateRip database.
Statistics
Read error : 0
Jitter error (maybe fixed) : 0
Retry sector count : 0
Damaged sector count : 0
Track 02
Filename : /Users/artadmin/Music/02 Леонарда БРУШТЕЙН - Балшем.flac
Track gain : -5.14 dB
Peak : 0.931091
CRC32 hash (test run) : 36DE2EA3
CRC32 hash : 36DE2EA3
CRC32 hash (skip zero) : FC9D4B22
AccurateRip v1 signature : A406B8D1
AccurateRip v2 signature : C8624C37
->Track not present in AccurateRip database.
Statistics
Read error : 0
Jitter error (maybe fixed) : 0
Retry sector count : 0
Damaged sector count : 0
Track 03
Filename : /Users/artadmin/Music/03 Леонарда БРУШТЕЙН - Андалузский романс.flac
Track gain : -3.72 dB
Peak : 0.886597
CRC32 hash (test run) : B74042F6
CRC32 hash : B74042F6
CRC32 hash (skip zero) : 5408F3CF
AccurateRip v1 signature : E21FFECF
AccurateRip v2 signature : 2DA2C3AB
->Track not present in AccurateRip database.
Statistics
Read error : 0
Jitter error (maybe fixed) : 0
Retry sector count : 0
Damaged sector count : 0
Track 04
Filename : /Users/artadmin/Music/04 Леонарда БРУШТЕЙН - Венгерский танец.flac
Track gain : -4.73 dB
Peak : 0.877411
CRC32 hash (test run) : 2FCF40F4
CRC32 hash : 2FCF40F4
CRC32 hash (skip zero) : D8F6D147
AccurateRip v1 signature : EBE83A3B
AccurateRip v2 signature : B9F49722
->Track not present in AccurateRip database.
Statistics
Read error : 0
Jitter error (maybe fixed) : 0
Retry sector count : 0
Damaged sector count : 0
Track 05
Filename : /Users/artadmin/Music/05 Леонарда БРУШТЕЙН - Полёт шмеля.flac
Track gain : -4.64 dB
Peak : 0.904297
CRC32 hash (test run) : 528FDB62
CRC32 hash : 528FDB62
CRC32 hash (skip zero) : 6D48E99B
AccurateRip v1 signature : E979B725
AccurateRip v2 signature : B513AFED
->Track not present in AccurateRip database.
Statistics
Read error : 0
Jitter error (maybe fixed) : 0
Retry sector count : 0
Damaged sector count : 0
Track 06
Filename : /Users/artadmin/Music/06 Леонарда БРУШТЕЙН - Вокализ.flac
Track gain : -7.45 dB
Peak : 0.842346
CRC32 hash (test run) : B311E208
CRC32 hash : B311E208
CRC32 hash (skip zero) : BCAC3FB3
AccurateRip v1 signature : A6C94AE2
AccurateRip v2 signature : B5E37179
->Track not present in AccurateRip database.
Statistics
Read error : 0
Jitter error (maybe fixed) : 0
Retry sector count : 0
Damaged sector count : 0
Track 07
Filename : /Users/artadmin/Music/07 Леонарда БРУШТЕЙН - Романс.flac
Track gain : -5.24 dB
Peak : 0.958252
CRC32 hash (test run) : B962FEF6
CRC32 hash : B962FEF6
CRC32 hash (skip zero) : 4156E3D5
AccurateRip v1 signature : C7239BFE
AccurateRip v2 signature : F1760CF2
->Track not present in AccurateRip database.
Statistics
Read error : 0
Jitter error (maybe fixed) : 0
Retry sector count : 0
Damaged sector count : 0
Track 08
Filename : /Users/artadmin/Music/08 Леонарда БРУШТЕЙН - Кантабиле.flac
Track gain : -4.20 dB
Peak : 0.930420
CRC32 hash (test run) : 1630B777
CRC32 hash : 1630B777
CRC32 hash (skip zero) : BF531D3A
AccurateRip v1 signature : FD1944D6
AccurateRip v2 signature : A8CFF8DE
->Track not present in AccurateRip database.
Statistics
Read error : 0
Jitter error (maybe fixed) : 0
Retry sector count : 0
Damaged sector count : 0
Track 09
Filename : /Users/artadmin/Music/09 Леонарда БРУШТЕЙН - Муки любви.flac
Track gain : -1.10 dB
Peak : 0.750763
CRC32 hash (test run) : C7671AF9
CRC32 hash : C7671AF9
CRC32 hash (skip zero) : A8298E64
AccurateRip v1 signature : 3AE12A5A
AccurateRip v2 signature : CC6BE371
->Track not present in AccurateRip database.
Statistics
Read error : 0
Jitter error (maybe fixed) : 0
Retry sector count : 0
Damaged sector count : 0
Track 10
Filename : /Users/artadmin/Music/10 Леонарда БРУШТЕЙН - Маленький венский марш.flac
Track gain : -4.79 dB
Peak : 0.965881
CRC32 hash (test run) : 676D3A2E
CRC32 hash : 676D3A2E
CRC32 hash (skip zero) : 19C20CD4
AccurateRip v1 signature : 42C4A83B
AccurateRip v2 signature : F2E8E031
->Track not present in AccurateRip database.
Statistics
Read error : 0
Jitter error (maybe fixed) : 0
Retry sector count : 0
Damaged sector count : 0
Track 11
Filename : /Users/artadmin/Music/11 Леонарда БРУШТЕЙН - В стране Лотоса.flac
Track gain : -0.46 dB
Peak : 0.835876
CRC32 hash (test run) : 103A9E76
CRC32 hash : 103A9E76
CRC32 hash (skip zero) : B7AE9D92
AccurateRip v1 signature : BC8DB024
AccurateRip v2 signature : 0D48A8CF
->Track not present in AccurateRip database.
Statistics
Read error : 0
Jitter error (maybe fixed) : 0
Retry sector count : 0
Damaged sector count : 0
Track 12
Filename : /Users/artadmin/Music/12 Леонарда БРУШТЕЙН - Румынские танцы.flac
Track gain : -4.82 dB
Peak : 0.935089
CRC32 hash (test run) : 63097B82
CRC32 hash : 63097B82
CRC32 hash (skip zero) : E16C0D20
AccurateRip v1 signature : F6C48068
AccurateRip v2 signature : FB286343
->Track not present in AccurateRip database.
Statistics
Read error : 0
Jitter error (maybe fixed) : 0
Retry sector count : 0
Damaged sector count : 0
Track 13
Filename : /Users/artadmin/Music/13 Леонарда БРУШТЕЙН - Лебедь.flac
Track gain : -0.15 dB
Peak : 0.944427
CRC32 hash (test run) : 4A577ECF
CRC32 hash : 4A577ECF
CRC32 hash (skip zero) : 59BD6D4D
AccurateRip v1 signature : AEFFCC0C
AccurateRip v2 signature : 0313AA16
->Track not present in AccurateRip database.
Statistics
Read error : 0
Jitter error (maybe fixed) : 0
Retry sector count : 0
Damaged sector count : 0
Track 14
Filename : /Users/artadmin/Music/14 Леонарда БРУШТЕЙН - Колыбельная Клары.flac
Track gain : -0.30 dB
Peak : 0.883911
CRC32 hash (test run) : 0901E4D5
CRC32 hash : 0901E4D5
CRC32 hash (skip zero) : B8979764
AccurateRip v1 signature : 90CA04EC
AccurateRip v2 signature : C05F1F7C
->Track not present in AccurateRip database.
Statistics
Read error : 0
Jitter error (maybe fixed) : 0
Retry sector count : 0
Damaged sector count : 0
Track 15
Filename : /Users/artadmin/Music/15 Леонарда БРУШТЕЙН - Плач.flac
Track gain : -4.38 dB
Peak : 0.889862
CRC32 hash (test run) : D7769801
CRC32 hash : D7769801
CRC32 hash (skip zero) : 74653F3D
AccurateRip v1 signature : 583052AC
AccurateRip v2 signature : BCAEC472
->Track not present in AccurateRip database.
Statistics
Read error : 0
Jitter error (maybe fixed) : 0
Retry sector count : 0
Damaged sector count : 0
Track 16
Filename : /Users/artadmin/Music/16 Леонарда БРУШТЕЙН - Танец.flac
Track gain : -3.90 dB
Peak : 0.783813
CRC32 hash (test run) : 0BB169B9
CRC32 hash : 0BB169B9
CRC32 hash (skip zero) : 7D270C54
AccurateRip v1 signature : CCB21138
AccurateRip v2 signature : B07A0DE7
->Track not present in AccurateRip database.
Statistics
Read error : 0
Jitter error (maybe fixed) : 0
Retry sector count : 0
Damaged sector count : 0
No errors occurred
End of status report

Содержание индексной карты (.CUE)

TITLE "Леонарда БРУШТЕЙН. Скрипка"
PERFORMER "Леонарда БРУШТЕЙН"
REM GENRE "Classical"
REM DATE "1998"
REM DISCID E810FC10
FILE "01 Леонарда БРУШТЕЙН - Аве Мария.wav" WAVE
TRACK 01 AUDIO
TITLE "Аве Мария"
PERFORMER "Леонарда БРУШТЕЙН"
SONGWRITER "Ф. Шуберт-Вильгельми"
INDEX 01 00:00:00
FILE "02 Леонарда БРУШТЕЙН - Балшем.wav" WAVE
TRACK 02 AUDIO
TITLE "Балшем"
PERFORMER "Леонарда БРУШТЕЙН"
SONGWRITER "Э. Блох"
INDEX 01 00:00:00
FILE "03 Леонарда БРУШТЕЙН - Андалузский романс.wav" WAVE
TRACK 03 AUDIO
TITLE "Андалузский романс"
PERFORMER "Леонарда БРУШТЕЙН"
SONGWRITER "П. Сарасате"
INDEX 01 00:00:00
FILE "04 Леонарда БРУШТЕЙН - Венгерский танец.wav" WAVE
TRACK 04 AUDIO
TITLE "Венгерский танец"
PERFORMER "Леонарда БРУШТЕЙН"
SONGWRITER "И. Брамс"
INDEX 01 00:00:00
FILE "05 Леонарда БРУШТЕЙН - Полёт шмеля.wav" WAVE
TRACK 05 AUDIO
TITLE "Полёт шмеля"
PERFORMER "Леонарда БРУШТЕЙН"
SONGWRITER "Н.Н. Римский-Корсаков"
INDEX 01 00:00:00
FILE "06 Леонарда БРУШТЕЙН - Вокализ.wav" WAVE
TRACK 06 AUDIO
TITLE "Вокализ"
PERFORMER "Леонарда БРУШТЕЙН"
SONGWRITER "С.Рахманинов"
INDEX 01 00:00:00
FILE "07 Леонарда БРУШТЕЙН - Романс.wav" WAVE
TRACK 07 AUDIO
TITLE "Романс"
PERFORMER "Леонарда БРУШТЕЙН"
SONGWRITER "С.Рахманинов"
INDEX 01 00:00:00
FILE "08 Леонарда БРУШТЕЙН - Кантабиле.wav" WAVE
TRACK 08 AUDIO
TITLE "Кантабиле"
PERFORMER "Леонарда БРУШТЕЙН"
SONGWRITER "Н. Паганини"
INDEX 01 00:00:00
FILE "09 Леонарда БРУШТЕЙН - Муки любви.wav" WAVE
TRACK 09 AUDIO
TITLE "Муки любви"
PERFORMER "Леонарда БРУШТЕЙН"
SONGWRITER "Ф. Крейслер"
INDEX 01 00:00:00
FILE "10 Леонарда БРУШТЕЙН - Маленький венский марш.wav" WAVE
TRACK 10 AUDIO
TITLE "Маленький венский марш"
PERFORMER "Леонарда БРУШТЕЙН"
SONGWRITER "Ф. Крейслер"
INDEX 01 00:00:00
FILE "11 Леонарда БРУШТЕЙН - В стране Лотоса.wav" WAVE
TRACK 11 AUDIO
TITLE "В стране Лотоса"
PERFORMER "Леонарда БРУШТЕЙН"
SONGWRITER "Скотт-Крейслер"
INDEX 01 00:00:00
FILE "12 Леонарда БРУШТЕЙН - Румынские танцы.wav" WAVE
TRACK 12 AUDIO
TITLE "Румынские танцы"
PERFORMER "Леонарда БРУШТЕЙН"
SONGWRITER "Б. Барток"
INDEX 01 00:00:00
FILE "13 Леонарда БРУШТЕЙН - Лебедь.wav" WAVE
TRACK 13 AUDIO
TITLE "Лебедь"
PERFORMER "Леонарда БРУШТЕЙН"
SONGWRITER "К. Сенс-Санс
К. Сенс-Санс
К. Сенс-Санс"
INDEX 01 00:00:00
FILE "14 Леонарда БРУШТЕЙН - Колыбельная Клары.wav" WAVE
TRACK 14 AUDIO
TITLE "Колыбельная Клары"
PERFORMER "Леонарда БРУШТЕЙН"
SONGWRITER "Д. Гершвин"
INDEX 01 00:00:00
FILE "15 Леонарда БРУШТЕЙН - Плач.wav" WAVE
TRACK 15 AUDIO
TITLE "Плач"
PERFORMER "Леонарда БРУШТЕЙН"
SONGWRITER "Д. Гершвин - Я. Хейфиц"
INDEX 01 00:00:00
FILE "16 Леонарда БРУШТЕЙН - Танец.wav" WAVE
TRACK 16 AUDIO
TITLE "Танец"
PERFORMER "Леонарда БРУШТЕЙН"
SONGWRITER "Д. Гершвин - Я. Хейфиц"
INDEX 01 00:00:00
Доп. информация: Уникальное оригинальное издание собственного лейбла Народной артистки России Леонарды Бруштайн (каталожный номер ЛБ-001), ставшее последним а её жизни.
Прижизненные мнения:
“…Её исполнительское искусство отличается технической свободой и тонким пониманием художественных особенностей исполняемого произведения” (Родион Щедрин).
“… Благодарность композиторов сех поколений ей безгранична, я уже не говорю о её исполнении классической музыки нашей и зарубежной” (Тихон Хренников)
“… Для меня она музыкант высочайшего класса и идеального человеческого характера…” (Никита Богословский)



Показать сообщения:    

Текущее время: 02-Дек 23:11

Часовой пояс: UTC + 3


Вы не можете начинать темы
Вы не можете отвечать на сообщения
Вы не можете редактировать свои сообщения
Вы не можете удалять свои сообщения
Вы не можете голосовать в опросах
Вы не можете прикреплять файлы к сообщениям
Вы не можете скачивать файлы