(Classical, cello) Рейнгольд Глиэр - Дуэты с виолончелью - Martin Rummel, Alexander Hulshoff, Friedemann Eichhorn, Till Alexander Korber - 2013, FLAC (image+.cue) lossless


 

[Цитировать]

Рейнгольд Глиэр - Дуэты с виолончелью - Martin Rummel, Alexander Hülshoff, Friedemann Eichhorn, Till Alexander Körber
Жанр: Classical, cello
Год издания диска: 2013
Издатель (лейбл): Naxos
Номер по каталогу: 8.572713
Дата записи: 2011
Аудиокодек: FLAC
Тип рипа: image+.cue
Битрейт аудио: lossless
Продолжительность: 72:03
Источник: собственный рип
Наличие сканов в содержимом раздачи: да
Треклист:
Рейнгольд Глиэр (1875–1956)
Reinhold Glière
[1]-[8] 8 дуэтов для скрипки и виолончели, Op.39
[9] Баллада, Op.4
[10]-[19] 10 дуэтов для 2-х виолончелей, Op.53
[20]-[31] 12 листков из альбома для виолончели с фортепиано, Op.51
Исполнители:
Martin Rummel, Alexander Hülshoff cellos
Friedemann Eichhorn violin
Till Alexander Körber piano

Лог создания рипа

Exact Audio Copy V1.0 beta 3 from 29. August 2011
EAC extraction logfile from 11. July 2014, 3:07
Martin Rummel, Alexander Hülshoff / Gliere - Complete Duets with Cello
Used drive : HL-DT-STDVDRAM GU70N Adapter: 0 ID: 0
Read mode : Secure
Utilize accurate stream : Yes
Defeat audio cache : Yes
Make use of C2 pointers : No
Read offset correction : 48
Overread into Lead-In and Lead-Out : No
Fill up missing offset samples with silence : Yes
Delete leading and trailing silent blocks : No
Null samples used in CRC calculations : Yes
Used interface : Native Win32 interface for Win NT & 2000
Used output format : User Defined Encoder
Selected bitrate : 128 kBit/s
Quality : High
Add ID3 tag : No
Command line compressor : C:\Program Files (x86)\Exact Audio Copy\Flac\flac.exe
Additional command line options : -V -8 -T "Date=%year%" -T "Genre=%genre%" %source%
TOC of the extracted CD
Track | Start | Length | Start sector | End sector
---------------------------------------------------------
1 | 0:00.00 | 1:59.28 | 0 | 8952
2 | 1:59.28 | 2:19.33 | 8953 | 19410
3 | 4:18.61 | 2:17.38 | 19411 | 29723
4 | 6:36.24 | 1:46.57 | 29724 | 37730
5 | 8:23.06 | 2:08.15 | 37731 | 47345
6 | 10:31.21 | 1:49.43 | 47346 | 55563
7 | 12:20.64 | 2:44.47 | 55564 | 67910
8 | 15:05.36 | 1:14.49 | 67911 | 73509
9 | 16:20.10 | 5:00.53 | 73510 | 96062
10 | 21:20.63 | 2:19.03 | 96063 | 106490
11 | 23:39.66 | 1:28.16 | 106491 | 113106
12 | 25:08.07 | 3:38.23 | 113107 | 129479
13 | 28:46.30 | 1:07.56 | 129480 | 134560
14 | 29:54.11 | 2:32.32 | 134561 | 145992
15 | 32:26.43 | 2:12.66 | 145993 | 155958
16 | 34:39.34 | 1:48.73 | 155959 | 164131
17 | 36:28.32 | 2:04.03 | 164132 | 173434
18 | 38:32.35 | 2:59.57 | 173435 | 186916
19 | 41:32.17 | 1:56.52 | 186917 | 195668
20 | 43:28.69 | 3:02.25 | 195669 | 209343
21 | 46:31.19 | 3:25.45 | 209344 | 224763
22 | 49:56.64 | 2:22.21 | 224764 | 235434
23 | 52:19.10 | 1:48.51 | 235435 | 243585
24 | 54:07.61 | 2:33.29 | 243586 | 255089
25 | 56:41.15 | 2:15.48 | 255090 | 265262
26 | 58:56.63 | 1:49.31 | 265263 | 273468
27 | 60:46.19 | 2:13.53 | 273469 | 283496
28 | 62:59.72 | 2:10.67 | 283497 | 293313
29 | 65:10.64 | 2:20.51 | 293314 | 303864
30 | 67:31.40 | 2:00.65 | 303865 | 312929
31 | 69:32.30 | 2:28.45 | 312930 | 324074
Range status and errors
Selected range
Filename C:\temp\Naxos_8.572713 - Gliere - Complete Duets with Cello\Gliere - Complete Duets with Cello.wav
Peak level 100.0 %
Extraction speed 2.3 X
Range quality 99.9 %
Test CRC 60007177
Copy CRC 60007177
Copy OK
No errors occurred
AccurateRip summary
Track 1 not present in database
Track 2 not present in database
Track 3 not present in database
Track 4 not present in database
Track 5 not present in database
Track 6 not present in database
Track 7 not present in database
Track 8 not present in database
Track 9 not present in database
Track 10 not present in database
Track 11 not present in database
Track 12 not present in database
Track 13 not present in database
Track 14 not present in database
Track 15 not present in database
Track 16 not present in database
Track 17 not present in database
Track 18 not present in database
Track 19 not present in database
Track 20 not present in database
Track 21 not present in database
Track 22 not present in database
Track 23 not present in database
Track 24 not present in database
Track 25 not present in database
Track 26 not present in database
Track 27 not present in database
Track 28 not present in database
Track 29 not present in database
Track 30 not present in database
Track 31 not present in database
None of the tracks are present in the AccurateRip database
End of status report
==== Log checksum 48EF9169F0BB0660874E82988FFB57279BD3C524C7C347D926E3D63DFCCC646B ====



Показать сообщения:    

Текущее время: 06-Дек 15:05

Часовой пояс: UTC + 3


Вы не можете начинать темы
Вы не можете отвечать на сообщения
Вы не можете редактировать свои сообщения
Вы не можете удалять свои сообщения
Вы не можете голосовать в опросах
Вы не можете прикреплять файлы к сообщениям
Вы не можете скачивать файлы