(Сlassicism) Wolfgang Amadeus Mozart (1756-1791) Complete String Quintets - Ensemble Villa Musica, FLAC (image+.cue) lossless


 

[Цитировать]

Wolfgang Amadeus Mozart (1756-1791) Complete String Quintets
Ensemble Villa Musica
Жанр: (Сlassicism)
Страна-производитель диска: Germany
Год издания диска: 2001-2004
Издатель (лейбл): MDG
Дата записи: 2000-2003
Аудиокодек: FLAC
Тип рипа: image+.cue
Битрейт аудио: lossless
Продолжительность: 5:5:38
Источник: собственный рип
Наличие сканов в содержимом раздачи: да

Vol.1

Ensemble Villa Musica
Rainer Kußmaul, violin
Aki Sunahara, violin
Hariolf Schlichtig, viola
Enrique Santiago, viola
Martin Ostertag, violoncello

Quintet KV 174 В flat maior
1. Allegro moderato
2. Adagio
3. Menuetto ma allegro
4. Allegro
5. Menuetto ma allegro (with first version Trio)
6. Allegro (First version)
Quintet KV 614 E flat maior
7. Allegro di molto
8. Andante
9. Menuetto. Allegretto
10. Allegro
Total Time: 71'23
Recording: November, 1-2, 2000, Füstliche Reitbahn Bad Arolsen

EAC log

Exact Audio Copy V1.0 beta 3 from 29. August 2011
EAC extraction logfile from 6. August 2014, 17:47
Ensemble Villa Musica / W.A. Mozart - Complete String Quintets Vol. 1
Used drive : Optiarc DVD RW AD-7173A Adapter: 3 ID: 0
Read mode : Secure
Utilize accurate stream : Yes
Defeat audio cache : Yes
Make use of C2 pointers : No
Read offset correction : 48
Overread into Lead-In and Lead-Out : No
Fill up missing offset samples with silence : Yes
Delete leading and trailing silent blocks : No
Null samples used in CRC calculations : Yes
Used interface : Native Win32 interface for Win NT & 2000
Used output format : Internal WAV Routines
Sample format : 44.100 Hz; 16 Bit; Stereo
TOC of the extracted CD
Track | Start | Length | Start sector | End sector
---------------------------------------------------------
1 | 0:00.00 | 11:56.12 | 0 | 53711
2 | 11:56.12 | 9:37.63 | 53712 | 97049
3 | 21:34.00 | 4:12.12 | 97050 | 115961
4 | 25:46.12 | 7:54.48 | 115962 | 151559
5 | 33:40.60 | 3:23.17 | 151560 | 166801
6 | 37:04.02 | 7:05.50 | 166802 | 198726
7 | 44:09.52 | 9:51.13 | 198727 | 243064
8 | 54:00.65 | 7:12.17 | 243065 | 275481
9 | 61:13.07 | 4:56.58 | 275482 | 297739
10 | 66:09.65 | 5:13.37 | 297740 | 321251
Range status and errors
Selected range
Filename C:\Scanned\1\Ensemble Villa Musica - W.A. Mozart - Complete String Quintets Vol. 1.wav
Peak level 89.5 %
Extraction speed 4.7 X
Range quality 99.9 %
Copy CRC 7379F1D4
Copy OK
No errors occurred
AccurateRip summary
Track 1 accurately ripped (confidence 3) [96FB78CC] (AR v2)
Track 2 accurately ripped (confidence 3) [E0DB35D5] (AR v2)
Track 3 accurately ripped (confidence 3) [BA85F99A] (AR v2)
Track 4 accurately ripped (confidence 3) [A9D3AEDB] (AR v2)
Track 5 accurately ripped (confidence 2) [004706DE] (AR v2)
Track 6 accurately ripped (confidence 3) [6AB406B5] (AR v2)
Track 7 accurately ripped (confidence 3) [F22427E7] (AR v2)
Track 8 accurately ripped (confidence 3) [24D93F7E] (AR v2)
Track 9 accurately ripped (confidence 3) [37633534] (AR v2)
Track 10 accurately ripped (confidence 3) [1D4B8C73] (AR v2)
All tracks accurately ripped
End of status report
==== Log checksum 5DC491601B2F091F13BACEE7A60B2287E50550ADBC85BED25FE95CCC8C6ADA9A ====

Vol.2

Ensemble Villa Musica
Rainer Kußmaul, violin
Aki Sunahara, violin
Hariolf Schlichtig, viola
Enrique Santiago, viola
Martin Ostertag, violoncello

Quintet KV 515 C maior
1. Allegro
2. Menuetto. Allegretto
3. Andante
4. (Allegro)
Quintet KV 406 C minor
5. Allegro
6. Andante
7. Minuetto in Canone
8. Allegro
Total Time: 59'03
Recording: November, 3, 2000, February, 5, 2001, Furstliche Reitbahn Bad Arolsen

EAC log

Exact Audio Copy V1.0 beta 3 from 29. August 2011
EAC extraction logfile from 6. August 2014, 18:06
Ensemble Villa Musica / W.A. Mozart - Complete String Quintests Vol. 2
Used drive : Optiarc DVD RW AD-7173A Adapter: 3 ID: 0
Read mode : Secure
Utilize accurate stream : Yes
Defeat audio cache : Yes
Make use of C2 pointers : No
Read offset correction : 48
Overread into Lead-In and Lead-Out : No
Fill up missing offset samples with silence : Yes
Delete leading and trailing silent blocks : No
Null samples used in CRC calculations : Yes
Used interface : Native Win32 interface for Win NT & 2000
Used output format : Internal WAV Routines
Sample format : 44.100 Hz; 16 Bit; Stereo
TOC of the extracted CD
Track | Start | Length | Start sector | End sector
---------------------------------------------------------
1 | 0:00.00 | 12:06.05 | 0 | 54454
2 | 12:06.05 | 6:00.52 | 54455 | 81506
3 | 18:06.57 | 7:52.68 | 81507 | 116974
4 | 25:59.50 | 7:16.52 | 116975 | 149726
5 | 33:16.27 | 11:07.48 | 149727 | 199799
6 | 44:24.00 | 4:01.05 | 199800 | 217879
7 | 48:25.05 | 4:44.10 | 217880 | 239189
8 | 53:09.15 | 5:52.30 | 239190 | 265619
Range status and errors
Selected range
Filename C:\Scanned\1\Ensemble Villa Musica - W.A. Mozart - Complete String Quintests Vol. 2.wav
Peak level 91.4 %
Extraction speed 5.0 X
Range quality 100.0 %
Copy CRC F352ED68
Copy OK
No errors occurred
AccurateRip summary
Track 1 accurately ripped (confidence 3) [A93BE024] (AR v2)
Track 2 accurately ripped (confidence 3) [48904EB6] (AR v2)
Track 3 accurately ripped (confidence 3) [5FD94824] (AR v2)
Track 4 accurately ripped (confidence 3) [9AED5457] (AR v2)
Track 5 accurately ripped (confidence 3) [EE83B854] (AR v2)
Track 6 accurately ripped (confidence 3) [0691C875] (AR v2)
Track 7 accurately ripped (confidence 3) [736CD1E6] (AR v2)
Track 8 accurately ripped (confidence 3) [82518B1B] (AR v2)
All tracks accurately ripped
End of status report
==== Log checksum BB498F648D0F90145EF2F0A76B681CBBAB3222C0629217E61E719E2A25D4B261 ====

Vol.3

Ensemble Villa Musica
Rainer Kußmaul, violin
Aki Sunahara, violin
Hariolf Schlichtig, viola
Enrique Santiago, viola
Martin Ostertag, violoncello

Quintet KV 516 G minor
1. Allegro
2. Menuetto. Allegretto
3. Adagio ma non troppo
4. Adagio
5. Allegro
Quintet KV 593 D maior
6. Larghetto - Allegro
7. Adagio
8. Menuetto. Allegretto
9. Allegro
Total Time: 68'47
Recording: February, 6-7, 2001, Fürstliche

EAC log

Exact Audio Copy V1.0 beta 3 from 29. August 2011
EAC extraction logfile from 6. August 2014, 18:25
Mozart / Complete String Quintets Vol. 3 (Ensemble Villa Musica)
Used drive : Optiarc DVD RW AD-7173A Adapter: 3 ID: 0
Read mode : Secure
Utilize accurate stream : Yes
Defeat audio cache : Yes
Make use of C2 pointers : No
Read offset correction : 48
Overread into Lead-In and Lead-Out : No
Fill up missing offset samples with silence : Yes
Delete leading and trailing silent blocks : No
Null samples used in CRC calculations : Yes
Used interface : Native Win32 interface for Win NT & 2000
Used output format : Internal WAV Routines
Sample format : 44.100 Hz; 16 Bit; Stereo
TOC of the extracted CD
Track | Start | Length | Start sector | End sector
---------------------------------------------------------
1 | 0:00.00 | 13:49.35 | 0 | 62209
2 | 13:49.35 | 5:36.25 | 62210 | 87434
3 | 19:25.60 | 7:40.07 | 87435 | 121941
4 | 27:05.67 | 2:24.60 | 121942 | 132801
5 | 29:30.52 | 7:34.48 | 132802 | 166899
6 | 37:05.25 | 12:11.07 | 166900 | 221731
7 | 49:16.32 | 6:28.65 | 221732 | 250896
8 | 55:45.22 | 5:25.18 | 250897 | 275289
9 | 61:10.40 | 7:45.62 | 275290 | 310226
Range status and errors
Selected range
Filename C:\Scanned\1\Mozart - Complete String Quintets Vol. 3 (Ensemble Villa Musica).wav
Peak level 85.7 %
Extraction speed 5.3 X
Range quality 99.9 %
Copy CRC 13323677
Copy OK
No errors occurred
AccurateRip summary
Track 1 accurately ripped (confidence 4) [3B28EEDD] (AR v2)
Track 2 accurately ripped (confidence 4) [A7F4E057] (AR v2)
Track 3 accurately ripped (confidence 4) [E0A0086E] (AR v2)
Track 4 accurately ripped (confidence 4) [35FFF12F] (AR v2)
Track 5 accurately ripped (confidence 4) [0A0B7D1A] (AR v2)
Track 6 accurately ripped (confidence 4) [443FE4E5] (AR v2)
Track 7 accurately ripped (confidence 4) [ABB90D01] (AR v2)
Track 8 accurately ripped (confidence 4) [ECB65C7B] (AR v2)
Track 9 accurately ripped (confidence 4) [B79B3BF1] (AR v2)
All tracks accurately ripped
End of status report
==== Log checksum 99A02D2C2AEDC57FCD4370EC8F1F0166F8FC3F0537F614B809FAF8FFB70EE54D ====

Vol.4

Ensemble Villa Musica
Jean-Claude Gérard, flute (4-5)
Ingo Goritzki, oboe (1-8)
Ulf Rodenhäuser, clarinet (6-8)
Dag Jensen, bassoon (6-8)
Radovan Vlatkovic, horn (6-8)
Rainer Kußmaul, violin (1-3)
Enrique Santiago, viola (1-5)
Martin Ostertag, violoncello (1-5)
Kalle Randalu, piano (6-8)
Thomas Bloch, glass harmonica (4-5)

Quintet KV 370
for oboe and strings
F major
1. Allegro
2. Adagio
3. Rondeau. Allegro
Adagio and Rondo KV 617
for flute, oboe, viola, violoncello and glass harmonica
C minor/major
4. Adagio
5. Rondo. Allegretto
Quintet KV 452
for piano, oboe, clarinet, horn and bassoon
E flat major
6. Largo - Allegro moderato
7. Larghetto
8. Allegretto
Total Time: 54'17
Recording: December, 17, 2001 (KV 452), May, 21, 2002 (KV 617), January, 20, 2003 (KV 370), Fürstliche Reitbahn Bad Arolsen

EAC log

Exact Audio Copy V1.0 beta 3 from 29. August 2011
EAC extraction logfile from 6. August 2014, 18:44
Unknown Artist / Unknown Title
Used drive : Optiarc DVD RW AD-7173A Adapter: 3 ID: 0
Read mode : Secure
Utilize accurate stream : Yes
Defeat audio cache : Yes
Make use of C2 pointers : No
Read offset correction : 48
Overread into Lead-In and Lead-Out : No
Fill up missing offset samples with silence : Yes
Delete leading and trailing silent blocks : No
Null samples used in CRC calculations : Yes
Used interface : Native Win32 interface for Win NT & 2000
Used output format : Internal WAV Routines
Sample format : 44.100 Hz; 16 Bit; Stereo
TOC of the extracted CD
Track | Start | Length | Start sector | End sector
---------------------------------------------------------
1 | 0:00.00 | 9:06.50 | 0 | 40999
2 | 9:06.50 | 3:11.20 | 41000 | 55344
3 | 12:17.70 | 4:37.50 | 55345 | 76169
4 | 16:55.45 | 4:43.70 | 76170 | 97464
5 | 21:39.40 | 7:33.37 | 97465 | 131476
6 | 29:13.02 | 10:22.25 | 131477 | 178151
7 | 39:35.27 | 8:42.30 | 178152 | 217331
8 | 48:17.57 | 5:54.05 | 217332 | 243886
Range status and errors
Selected range
Filename C:\Scanned\1\Unknown Artist - Unknown Title.wav
Peak level 99.9 %
Extraction speed 4.8 X
Range quality 100.0 %
Copy CRC 999CD0BE
Copy OK
No errors occurred
AccurateRip summary
Track 1 accurately ripped (confidence 2) [FA457FCE] (AR v2)
Track 2 accurately ripped (confidence 2) [03B4EE86] (AR v2)
Track 3 accurately ripped (confidence 2) [F7B3B3CB] (AR v2)
Track 4 accurately ripped (confidence 2) [EB225DB8] (AR v2)
Track 5 accurately ripped (confidence 2) [7CB85D58] (AR v2)
Track 6 accurately ripped (confidence 2) [474256C6] (AR v2)
Track 7 accurately ripped (confidence 2) [4C7EBFB1] (AR v2)
Track 8 accurately ripped (confidence 2) [16745F31] (AR v2)
All tracks accurately ripped
End of status report
==== Log checksum 733DD84901BB3F65EA92F2EC2C52AEAA7CF04A34F8FCF371D704422CB32EEA7E ====

Vol.5

Ensemble Villa Musica
Ulf Rodenhäuser, clarinet (4-7)
Radovan Vlatkovic, horn (1-3)
Rainer Kußmaul, violin
Aki Sunahara, violin (4-7)
Enrique Santiago, viola
Hariolf Schlichtig, viola (1-3)
Martin Ostertag, violoncello

Quintet KV 581
for clarinet, 2 violins, viola and violoncello
A maior
1. Allegro
2. Larghetto
3. Menuetto - Trio I - Trio II
4. Allegretto con Variazioni
Quintet KV 407
for horn, violin, 2 violas and violoncello
E flat maior
5. Allegro
6. Andante
7. Rondo. Allegro
Total Time: 53'24
Recording: November, 26-28, 2003, Fürstliche Reitbahn Bad Arolsen

EAC log

Exact Audio Copy V1.0 beta 3 from 29. August 2011
EAC extraction logfile from 6. August 2014, 19:03
Ensemble Villa Musica / Wolfgang Amadeus Mozart - Complete Quintets Vol. 5
Used drive : Optiarc DVD RW AD-7173A Adapter: 3 ID: 0
Read mode : Secure
Utilize accurate stream : Yes
Defeat audio cache : Yes
Make use of C2 pointers : No
Read offset correction : 48
Overread into Lead-In and Lead-Out : No
Fill up missing offset samples with silence : Yes
Delete leading and trailing silent blocks : No
Null samples used in CRC calculations : Yes
Used interface : Native Win32 interface for Win NT & 2000
Used output format : Internal WAV Routines
Sample format : 44.100 Hz; 16 Bit; Stereo
TOC of the extracted CD
Track | Start | Length | Start sector | End sector
---------------------------------------------------------
1 | 0:00.00 | 12:35.42 | 0 | 56666
2 | 12:35.42 | 6:03.08 | 56667 | 83899
3 | 18:38.50 | 6:55.65 | 83900 | 115089
4 | 25:34.40 | 9:35.30 | 115090 | 158244
5 | 35:09.70 | 8:47.70 | 158245 | 197839
6 | 43:57.65 | 5:09.22 | 197840 | 221036
7 | 49:07.12 | 3:59.63 | 221037 | 239024
Range status and errors
Selected range
Filename C:\Scanned\1\Ensemble Villa Musica - Wolfgang Amadeus Mozart - Complete Quintets Vol. 5.wav
Peak level 95.5 %
Extraction speed 4.7 X
Range quality 100.0 %
Copy CRC B5598158
Copy OK
No errors occurred
AccurateRip summary
Track 1 accurately ripped (confidence 2) [F8213115] (AR v2)
Track 2 accurately ripped (confidence 2) [05959C7F] (AR v2)
Track 3 accurately ripped (confidence 2) [C361995C] (AR v2)
Track 4 accurately ripped (confidence 1) [077BC390] (AR v2)
Track 5 accurately ripped (confidence 2) [6C33D5FA] (AR v2)
Track 6 accurately ripped (confidence 2) [362467F0] (AR v2)
Track 7 accurately ripped (confidence 2) [06FE1293] (AR v2)
All tracks accurately ripped
End of status report
==== Log checksum 83005AD36A5374CC973811CCC453DC4703046AD673E4C93CEEBC2AF72DE6C20B ====

Дополнительная информация

The Ensemble Villa Musica (EVM) is a chamber group that has garnered much praise for its spirited performances in varied repertory since its founding in 1990. The number of players in the ensemble can vary according to the work performed, typically expanding from a duo to a quintet or all the way to a nonet, though the number of ensemble members is nearly 20 and can thus accommodate larger works. The group's repertory is broad, encompassing compositions by J.S. Bach, Mozart, Schubert, Fauré, Saint-Saëns, Hindemith, Martinu, as well as contemporary composers such as Penderecki and Hans Werner Henze. The ensemble has recorded for the German label MDG and for Naxos.
Ensemble Villa Musica was founded in 1990 when a group of principal players from several of Germany's major orchestras assembled for master classes in Mainz under the state-sponsored Villa Musica foundation. The players decided to form the group with no limitations in repertory, but with a focus on neglected masterworks of the past. Most of the members retained their posts in orchestras and/or on the faculties of universities or music schools. The ensemble's leader since its founding has been clarinetist Ulf Rodenhäuser.
There have been at least 20 members of the group over the years, and they include several famous names: violinist Rainer Kussmaul (member of Berlin Baroque Soloists and Stuttgart Piano Trio), violinist Thomas Brandis, violist Enrique Santiago, cellist Martin Ostertag, and bassoonist Klaus Thunemann. The rest of the EVM membership includes horn and bass players, flutist, oboist, pianist, and additional string players. Typically, EVM members are or have been first-chair or prominent players in important German orchestras, and all or most of the 20 have remained active in the ensemble.
Among the EVM's first recordings was the 1992 Amadis (Naxos) release of Schubert's Trout Quintet and E flat Trio. As the group gained recognition in Europe, a string of recordings followed quickly, including seven volumes of the complete Hindemith sonatas on MDG, and individual issues such as the 1999 release of the Martinu serenade and quartet. Other recordings include a 2005 Richard Strauss disc on MDG containing the composer's Op. 7 Serenade, Op. 4 Suite, and Sonatina "Aus der Werkstatt eines Invaliden." Though the EVM members have centered their activities in Mainz over the years, they have established a regular series of concerts in Rheinland-Pfalz, Stuttgart, and Munich, and have often gone on tour abroad. Efforts continued, with discs covering Reger (2009), Ponchielli (2010), and Schumann (2011).



Показать сообщения:    

Текущее время: 07-Дек 11:33

Часовой пояс: UTC + 3


Вы не можете начинать темы
Вы не можете отвечать на сообщения
Вы не можете редактировать свои сообщения
Вы не можете удалять свои сообщения
Вы не можете голосовать в опросах
Вы не можете прикреплять файлы к сообщениям
Вы не можете скачивать файлы