(Classical) Franz Schubert — «Trout» Quintet & String Quartet «Rosamunde» (Caspar da Salo Quintet) — 1991, APE (image+.cue) lossless


 

[Цитировать]

«Trout» Quintet & String Quartet «Rosamunde»- Жанр: Classical
Страна-производитель диска: Германия
Год издания диска: 1991
Издатель (лейбл): Classic Digital
Номер по каталогу: 140 111-2 P1
CATALOG: 036244530621
Композитор: Franz Peter Schubert
Аудио кодек: ape
Тип рипа: image+.cue
Битрейт аудио: lossless
Продолжительность: 01h14'27"
Источник: собственный рип
Наличие сканов в содержимом раздачи: нет-Треклист:
Piano Quintet Op 114 D 667 A-Dur / in A Major «The Trout»
01. I. Allegro vivace [00h12'32"]
02. II. Andane [00h07'00"]
03. III. Scherzo. Presto – Trio [00h04'05"]
04. IV. Thema. Andantino – Var. I-VI [00h07'35"]
05. V. Finale. Allegro giusto [00h06'38"]
String Quartet Op 29 D 804 a-moll / in A minor «Rosamunde»
06. I. Allegro ma non troppo [00h14'25"]
07. II. Andante [00h07'08"]
08. III. Menuetto. Allegretto [00h08'08"]
09. IV. Allegro moderato [00h06'56"]
Caspar da Salo Quintet
-

EAC log

Exact Audio Copy V0.99 prebeta 5 from 4. May 2009
[br]
Отчёт EAC об извлечении, выполненном 22. августа 2014, 22:09
[br]
Schubert / Piano Quintet D 667 & String Quartet D 804
[br]
Дисковод: MITSUMI CR-486ETE   Adapter: 1  ID: 1
[br]
Режим чтения                 : Достоверность
Использование точного потока : Да
Отключение кэша аудио        : Да
Использование указателей C2  : Нет
[br]
Коррекция смещения при чтении                     : 6
Способность читать области Lead-in и Lead-out     : Нет
Заполнение пропущенных сэмплов тишиной            : Да
Удаление блоков с тишиной в начале и конце        : Нет
При вычислениях CRC использовались нулевые сэмплы : Да
Интерфейс                                         : Установленный внешний ASPI-интерфейс
[br]
Выходной формат          : Monkey's Audio (без потерь)
Выбранный битрейт        : Normal Lossless Compression
Качество                 : Высокий
Добавление ID3-тэга      : Нет
Утилита сжатия           : C:\Program Files\Monkey's Audio\MAC.exe
[br]
TOC извлечённого CD
[br]
Трек |   Старт  | Длительность | Начальный сектор | Конечный сектор
---------------------------------------------------------------------
1  |  0:00.00 |   12:32.00   |           0      |      56399
2  | 12:32.00 |    7:00.00   |       56400      |      87899
3  | 19:32.00 |    4:05.00   |       87900      |     106274
4  | 23:37.00 |    7:35.00   |      106275      |     140399
5  | 31:12.00 |    6:38.00   |      140400      |     170249
6  | 37:50.00 |   14:25.00   |      170250      |     235124
7  | 52:15.00 |    7:08.00   |      235125      |     267224
8  | 59:23.00 |    8:08.00   |      267225      |     303824
9  | 67:31.00 |    6:56.37   |      303825      |     335061
[br]
Характеристики диапазона извлечения и сообщения об ошибках
[br]
Выбранный диапазон
[br]
Имя файла D:\Музыка lossless\Schubert Caspar da Salo\Schubert - Piano Quintet D 667 & String Quartet D 804.wav
[br]
Пиковый уровень 91.6 %
Качество диапазона 100.0 %
CRC теста 6E16ADDF
CRC копии 6E16ADDF
Копирование... OK
[br]
Ошибок не произошло
[br]
AccurateRip: сводка
[br]
Трек  1  точное извлечение (доверие 15)  [E3FA0ACE]
Трек  2  точное извлечение (доверие 15)  [A125A4D4]
Трек  3  точное извлечение (доверие 14)  [FFFDAEA1]
Трек  4  точное извлечение (доверие 15)  [8DDEC200]
Трек  5  точное извлечение (доверие 15)  [E13F957A]
Трек  6  точное извлечение (доверие 14)  [DC13E428]
Трек  7  точное извлечение (доверие 14)  [01319789]
Трек  8  точное извлечение (доверие 12)  [163FCFFF]
Трек  9  точное извлечение (доверие 11)  [0D3F5C94]
[br]
Все треки извлечены точно
[br]
Конец отчёта
-

CUE

REM GENRE Classical
REM DATE 1991
REM DISCID 7C117309
REM COMMENT "ExactAudioCopy v0.99pb5"
PERFORMER "Schubert"
TITLE "Piano Quintet D 667 & String Quartet D 804"
FILE "Schubert - Piano Quintet D 667 & String Quartet D 804.ape" WAVE
TRACK 01 AUDIO
TITLE "Piano Quintet D 667 A-Dur - I. Allegro vivace"
PERFORMER "Schubert"
INDEX 01 00:00:00
TRACK 02 AUDIO
TITLE "Piano Quintet D 667 A-Dur - II. Andante"
PERFORMER "Schubert"
INDEX 00 12:28:12
INDEX 01 12:32:00
TRACK 03 AUDIO
TITLE "Piano Quintet D 667 A-Dur - III. Scherzo. Presto"
PERFORMER "Schubert"
INDEX 00 19:29:20
INDEX 01 19:32:00
TRACK 04 AUDIO
TITLE "Piano Quintet D 667 A-Dur - IV. Tema con variazioni. Andantino - Allegretto"
PERFORMER "Schubert"
INDEX 00 23:34:20
INDEX 01 23:37:00
TRACK 05 AUDIO
TITLE "Piano Quintet D 667 A-Dur - V. Finale. Allegro giusto"
PERFORMER "Schubert"
INDEX 00 31:09:72
INDEX 01 31:12:00
TRACK 06 AUDIO
TITLE "String Quartet D 804 a-moll - I. Allegro ma non troppo"
PERFORMER "Schubert"
INDEX 00 37:43:50
INDEX 01 37:50:00
TRACK 07 AUDIO
TITLE "String Quartet D 804 a-moll - II. Andante"
PERFORMER "Schubert"
INDEX 00 52:12:45
INDEX 01 52:15:00
TRACK 08 AUDIO
TITLE "String Quartet D 804 a-moll - III. Menuetto. Allegretto"
PERFORMER "Schubert"
INDEX 00 59:21:12
INDEX 01 59:23:00
TRACK 09 AUDIO
TITLE "String Quartet D 804 a-moll - IV. Allegro moderato"
PERFORMER "Schubert"
INDEX 00 67:28:72
INDEX 01 67:31:00
-



Показать сообщения:    

Текущее время: 03-Дек 22:47

Часовой пояс: UTC + 3


Вы не можете начинать темы
Вы не можете отвечать на сообщения
Вы не можете редактировать свои сообщения
Вы не можете удалять свои сообщения
Вы не можете голосовать в опросах
Вы не можете прикреплять файлы к сообщениям
Вы не можете скачивать файлы