(Classical / Домра) К 120-летию со дня рождения С.Прокофьева - Лик домер (домры): Некрасов, Скрипник, Мамонов, Прокофьев, Милка, Петриченко, Ивко, Ибер, Джоплин, Шенбергер - 2011, FLAC (tracks+.cue) lossless


 

[Цитировать]

К 120-летию со дня рождения С.Прокофьева - Лик домер (домры): Некрасов, Скрипник, Мамонов, Прокофьев, Милка, Петриченко, Ивко, Ибер, Джоплин, Шенбергер
Жанр: Classical
Инструментальная принадлежность: Домра
Страна-производитель диска: Украина
Год издания диска: 2011
Аудиокодек: FLAC
Тип рипа: tracks+.cue
Битрейт аудио: lossless
Продолжительность: 45:12
Источник: собственный рип
Наличие сканов в содержимом раздачи: да
Треклист:
01 О.Некрасов. Плотогони з сюїти ''Гуцульські гобелени''
02 О.Скрипник. Піано-форте
03 С.Мамонов. ''Присвячення Прокоф'єву''. Квазі миттєвість
04 С.Мамонов. Скерцо
05 С. Прокоф'єв. ''Чотири миттєвості''. №3
06 С. Прокоф'єв. №14
07 С. Прокоф'єв. №10
08 С. Прокоф'єв. №15
09 Є. Мілка. ''Українська сюїта''. 3 ч. - ''Веснянка''
10 Є. Мілка. 4 ч. - ''Молодечі жарти''
11 Є. Мілка. ''Червона каліна'' з циклу ''Польський віночок''
12 Є.Петриченко. Коло
13 В.Івко. ''Українська сюїта''. Пісня
14 В.Івко. Вариації на тему лемківської народної пісні
15 В.Івко. Андантіно
16 В.Івко. Щедрівка
17 В.Івко. Фінал Симфонії-концерту
18 Ж.Ібер. Маленький білій ослик
19 С.Джоплін. Рег персика
20 Дж.Шенбергер. Пошепки
Исполнители:
Камерный оркестр "Лик домер".

Лог создания рипа

Exact Audio Copy V1.0 beta 3 from 29. August 2011
Отчёт EAC об извлечении, выполненном 18. июля 2014, 13:14
- / До 120-річчя з дня народження Сергія Прокоф'єва
Дисковод: HL-DT-STDVDRAM GH24NS95 Adapter: 1 ID: 1
Режим чтения : Достоверность
Использование точного потока : Да
Отключение кэша аудио : Да
Использование указателей C2 : Нет
Коррекция смещения при чтении : 6
Способность читать области Lead-in и Lead-out : Нет
Заполнение пропущенных сэмплов тишиной : Да
Удаление блоков с тишиной в начале и конце : Нет
При вычислениях CRC использовались нулевые сэмплы : Да
Интерфейс : Встроенный Win32-интерфейс для Win NT/2000
Обработка зазоров : Добавлено к предыдущему треку
Выходной формат : Пользовательский кодировщик
Выбранный битрейт : 192 kBit/s
Качество : Высокий
Добавление ID3-тега : Нет
Утилита сжатия : C:\Program Files\Exact Audio Copy\Flac\flac.exe
Дополнительные параметры : -V -8 -T "Genre=%genre%" -T "Artist=%albumartist%" -T "Title=%title%" -T "Composer=%composer%" -T "Album=%albumtitle%" -T "Date=%year%" -T "Tracknumber=%tracknr%" -T "Comment=%comment%" %source%
TOC извлечённого CD
Трек | Старт | Длительность | Начальный сектор | Конечный сектор
---------------------------------------------------------------------
1 | 0:00.00 | 1:28.50 | 0 | 6649
2 | 1:28.50 | 1:22.28 | 6650 | 12827
3 | 2:51.03 | 0:55.23 | 12828 | 16975
4 | 3:46.26 | 4:13.52 | 16976 | 36002
5 | 8:00.03 | 0:55.51 | 36003 | 40178
6 | 8:55.54 | 1:03.40 | 40179 | 44943
7 | 9:59.19 | 1:02.13 | 44944 | 49606
8 | 11:01.32 | 0:51.04 | 49607 | 53435
9 | 11:52.36 | 1:27.31 | 53436 | 59991
10 | 13:19.67 | 1:46.69 | 59992 | 68010
11 | 15:06.61 | 2:30.73 | 68011 | 79333
12 | 17:37.59 | 2:43.05 | 79334 | 91563
13 | 20:20.64 | 2:54.56 | 91564 | 104669
14 | 23:15.45 | 3:18.18 | 104670 | 119537
15 | 26:33.63 | 1:59.08 | 119538 | 128470
16 | 28:32.71 | 3:15.05 | 128471 | 143100
17 | 31:48.01 | 4:31.30 | 143101 | 163455
18 | 36:19.31 | 2:26.23 | 163456 | 174428
19 | 38:45.54 | 2:45.19 | 174429 | 186822
20 | 41:30.73 | 2:12.42 | 186823 | 196764
Трек 1
Имя файла D:\Музыка\Лик домер - 120 лет Прокофьеву\01 О.Некрасов Плотогони з сюїти ''Гуцульські гобелени'' Лик домер.wav
Длина предзазора 0:00:02.00
Пиковый уровень 86.9 %
Скорость извлечения 1.3 X
Качество трека 100.0 %
CRC теста 054D91A9
CRC копии 054D91A9
Копирование... OK
Трек 2
Имя файла D:\Музыка\Лик домер - 120 лет Прокофьеву\02 О.Скрипник Піано-форте Лик домер.wav
Пиковый уровень 69.9 %
Скорость извлечения 1.3 X
Качество трека 100.0 %
CRC теста 417EBFA1
CRC копии 417EBFA1
Копирование... OK
Трек 3
Имя файла D:\Музыка\Лик домер - 120 лет Прокофьеву\03 С.Мамонов ''Присвячення Прокоф'єву''. Квазі миттєвість Лик домер.wav
Пиковый уровень 72.9 %
Скорость извлечения 1.1 X
Качество трека 100.0 %
CRC теста 97DB1A8C
CRC копии 97DB1A8C
Копирование... OK
Трек 4
Имя файла D:\Музыка\Лик домер - 120 лет Прокофьеву\04 С.Мамонов Скерцо Лик домер.wav
Пиковый уровень 71.3 %
Скорость извлечения 1.9 X
Качество трека 100.0 %
CRC теста 0069F012
CRC копии 0069F012
Копирование... OK
Трек 5
Имя файла D:\Музыка\Лик домер - 120 лет Прокофьеву\05 Сергій Прокоф'єв ''Чотири миттєвості''. №3 Лик домер.wav
Пиковый уровень 66.5 %
Скорость извлечения 1.3 X
Качество трека 100.0 %
CRC теста DBA4E882
CRC копии DBA4E882
Копирование... OK
Трек 6
Имя файла D:\Музыка\Лик домер - 120 лет Прокофьеву\06 Сергій Прокоф'єв №14 Лик домер.wav
Пиковый уровень 90.0 %
Скорость извлечения 1.5 X
Качество трека 100.0 %
CRC теста 32E48118
CRC копии 32E48118
Копирование... OK
Трек 7
Имя файла D:\Музыка\Лик домер - 120 лет Прокофьеву\07 Сергій Прокоф'єв №10 Лик домер.wav
Пиковый уровень 31.5 %
Скорость извлечения 1.5 X
Качество трека 100.0 %
CRC теста 9A9E7E72
CRC копии 9A9E7E72
Копирование... OK
Трек 8
Имя файла D:\Музыка\Лик домер - 120 лет Прокофьеву\08 Сергій Прокоф'єв №15 Лик домер.wav
Пиковый уровень 90.9 %
Скорость извлечения 1.4 X
Качество трека 100.0 %
CRC теста 702C1660
CRC копии 702C1660
Копирование... OK
Трек 9
Имя файла D:\Музыка\Лик домер - 120 лет Прокофьеву\09 Євген Мілка ''Українська сюїта''. 3 ч. - ''Веснянка'' Лик домер.wav
Пиковый уровень 38.0 %
Скорость извлечения 1.0 X
Качество трека 100.0 %
CRC теста B5F65E98
CRC копии B5F65E98
Копирование... OK
Трек 10
Имя файла D:\Музыка\Лик домер - 120 лет Прокофьеву\10 Євген Мілка 4 ч. - ''Молодечі жарти'' Лик домер.wav
Пиковый уровень 67.7 %
Скорость извлечения 1.9 X
Качество трека 100.0 %
CRC теста 56BCC72E
CRC копии 56BCC72E
Копирование... OK
Трек 11
Имя файла D:\Музыка\Лик домер - 120 лет Прокофьеву\11 Євген Мілка ''Червона каліна'' з циклу ''Польський віночок'' Лик домер.wav
Пиковый уровень 58.6 %
Скорость извлечения 2.2 X
Качество трека 100.0 %
CRC теста 28B45B54
CRC копии 28B45B54
Копирование... OK
Трек 12
Имя файла D:\Музыка\Лик домер - 120 лет Прокофьеву\12 Є.Петриченко Коло Лик домер.wav
Пиковый уровень 77.5 %
Скорость извлечения 1.3 X
Качество трека 100.0 %
CRC теста 61E4C316
CRC копии 61E4C316
Копирование... OK
Трек 13
Имя файла D:\Музыка\Лик домер - 120 лет Прокофьеву\13 В.Івко ''Українська сюїта''. Пісня Лик домер.wav
Пиковый уровень 84.8 %
Скорость извлечения 1.4 X
Качество трека 100.0 %
CRC теста 1850F98B
CRC копии 1850F98B
Копирование... OK
Трек 14
Имя файла D:\Музыка\Лик домер - 120 лет Прокофьеву\14 В.Івко Вариації на тему лемківської народної пісні Лик домер.wav
Пиковый уровень 93.9 %
Скорость извлечения 1.5 X
Качество трека 100.0 %
CRC теста 26E6568A
CRC копии 26E6568A
Копирование... OK
Трек 15
Имя файла D:\Музыка\Лик домер - 120 лет Прокофьеву\15 В.Івко Андантіно Лик домер.wav
Пиковый уровень 54.6 %
Скорость извлечения 1.4 X
Качество трека 100.0 %
CRC теста 2D7CB51F
CRC копии 2D7CB51F
Копирование... OK
Трек 16
Имя файла D:\Музыка\Лик домер - 120 лет Прокофьеву\16 В.Івко Щедрівка Лик домер.wav
Пиковый уровень 86.6 %
Скорость извлечения 1.6 X
Качество трека 100.0 %
CRC теста 42390F92
CRC копии 42390F92
Копирование... OK
Трек 17
Имя файла D:\Музыка\Лик домер - 120 лет Прокофьеву\17 В.Івко Фінал Симфонії-концерту Лик домер.wav
Пиковый уровень 94.4 %
Скорость извлечения 1.8 X
Качество трека 100.0 %
CRC теста D4557A4D
CRC копии D4557A4D
Копирование... OK
Трек 18
Имя файла D:\Музыка\Лик домер - 120 лет Прокофьеву\18 Ж.Ібер Маленький білій ослик Лик домер.wav
Пиковый уровень 26.2 %
Скорость извлечения 1.6 X
Качество трека 100.0 %
CRC теста 32A31695
CRC копии 32A31695
Копирование... OK
Трек 19
Имя файла D:\Музыка\Лик домер - 120 лет Прокофьеву\19 С.Джоплін Рег персика Лик домер.wav
Пиковый уровень 83.0 %
Скорость извлечения 1.7 X
Качество трека 100.0 %
CRC теста 6ED9A70E
CRC копии 6ED9A70E
Копирование... OK
Трек 20
Имя файла D:\Музыка\Лик домер - 120 лет Прокофьеву\20 Дж.Шенбергер Пошепки Лик домер.wav
Пиковый уровень 24.1 %
Скорость извлечения 1.7 X
Качество трека 100.0 %
CRC теста B70E0F4E
CRC копии B70E0F4E
Копирование... OK
Ошибок не произошло
Конец отчёта
==== Контрольная сумма отчёта D96C3411CDB4D9E7590E43367B4D7B0DF8F7D2958E7282FAFE527930AF2472F2 ====

Содержание индексной карты (.CUE)

REM GENRE Classical
REM DATE 2011
REM DISCID FC0A3F14
REM COMMENT "ExactAudioCopy v1.0b3"
PERFORMER ""
TITLE "До 120-річчя з дня народження Сергія Прокоф'єва"
FILE "01 О.Некрасов Плотогони з сюїти ''Гуцульські гобелени'' Лик домер.wav" WAVE
TRACK 01 AUDIO
TITLE "Плотогони з сюїти 'Гуцульські гобелени'"
PERFORMER "Лик домер"
FLAGS DCP
INDEX 01 00:00:00
FILE "02 О.Скрипник Піано-форте Лик домер.wav" WAVE
TRACK 02 AUDIO
TITLE "Піано-форте"
PERFORMER "Лик домер"
FLAGS DCP
INDEX 01 00:00:00
FILE "03 С.Мамонов ''Присвячення Прокоф'єву''. Квазі миттєвість Лик домер.wav" WAVE
TRACK 03 AUDIO
TITLE "'Присвячення Прокоф'єву'. Квазі миттєвість"
PERFORMER "Лик домер"
FLAGS DCP
INDEX 01 00:00:00
FILE "04 С.Мамонов Скерцо Лик домер.wav" WAVE
TRACK 04 AUDIO
TITLE "Скерцо"
PERFORMER "Лик домер"
FLAGS DCP
INDEX 01 00:00:00
FILE "05 Сергій Прокоф'єв ''Чотири миттєвості''. №3 Лик домер.wav" WAVE
TRACK 05 AUDIO
TITLE "'Чотири миттєвості'. №3"
PERFORMER "Лик домер"
FLAGS DCP
INDEX 01 00:00:00
FILE "06 Сергій Прокоф'єв №14 Лик домер.wav" WAVE
TRACK 06 AUDIO
TITLE "№14"
PERFORMER "Лик домер"
FLAGS DCP
INDEX 01 00:00:00
FILE "07 Сергій Прокоф'єв №10 Лик домер.wav" WAVE
TRACK 07 AUDIO
TITLE "№10"
PERFORMER "Лик домер"
FLAGS DCP
INDEX 01 00:00:00
FILE "08 Сергій Прокоф'єв №15 Лик домер.wav" WAVE
TRACK 08 AUDIO
TITLE "№15"
PERFORMER "Лик домер"
FLAGS DCP
INDEX 01 00:00:00
FILE "09 Євген Мілка ''Українська сюїта''. 3 ч. - ''Веснянка'' Лик домер.wav" WAVE
TRACK 09 AUDIO
TITLE "'Українська сюїта'. 3 ч. - 'Веснянка'"
PERFORMER "Лик домер"
FLAGS DCP
INDEX 01 00:00:00
FILE "10 Євген Мілка 4 ч. - ''Молодечі жарти'' Лик домер.wav" WAVE
TRACK 10 AUDIO
TITLE "4 ч. - 'Молодечі жарти'"
PERFORMER "Лик домер"
FLAGS DCP
INDEX 01 00:00:00
FILE "11 Євген Мілка ''Червона каліна'' з циклу ''Польський віночок'' Лик домер.wav" WAVE
TRACK 11 AUDIO
TITLE "'Червона каліна' з циклу 'Польський віночок'"
PERFORMER "Лик домер"
FLAGS DCP
INDEX 01 00:00:00
FILE "12 Є.Петриченко Коло Лик домер.wav" WAVE
TRACK 12 AUDIO
TITLE "Коло"
PERFORMER "Лик домер"
FLAGS DCP
INDEX 01 00:00:00
FILE "13 В.Івко ''Українська сюїта''. Пісня Лик домер.wav" WAVE
TRACK 13 AUDIO
TITLE "'Українська сюїта'. Пісня"
PERFORMER "Лик домер"
FLAGS DCP
INDEX 01 00:00:00
FILE "14 В.Івко Вариації на тему лемківської народної пісні Лик домер.wav" WAVE
TRACK 14 AUDIO
TITLE "Вариації на тему лемківської народної пісні"
PERFORMER "Лик домер"
FLAGS DCP
INDEX 01 00:00:00
FILE "15 В.Івко Андантіно Лик домер.wav" WAVE
TRACK 15 AUDIO
TITLE "Андантіно"
PERFORMER "Лик домер"
FLAGS DCP
INDEX 01 00:00:00
FILE "16 В.Івко Щедрівка Лик домер.wav" WAVE
TRACK 16 AUDIO
TITLE "Щедрівка"
PERFORMER "Лик домер"
FLAGS DCP
INDEX 01 00:00:00
FILE "17 В.Івко Фінал Симфонії-концерту Лик домер.wav" WAVE
TRACK 17 AUDIO
TITLE "Фінал Симфонії-концерту"
PERFORMER "Лик домер"
FLAGS DCP
INDEX 01 00:00:00
FILE "18 Ж.Ібер Маленький білій ослик Лик домер.wav" WAVE
TRACK 18 AUDIO
TITLE "Маленький білій ослик"
PERFORMER "Лик домер"
FLAGS DCP
INDEX 01 00:00:00
FILE "19 С.Джоплін Рег персика Лик домер.wav" WAVE
TRACK 19 AUDIO
TITLE "Рег персика"
PERFORMER "Лик домер"
FLAGS DCP
INDEX 01 00:00:00
FILE "20 Дж.Шенбергер Пошепки Лик домер.wav" WAVE
TRACK 20 AUDIO
TITLE "Пошепки"
PERFORMER "Лик домер"
FLAGS DCP
INDEX 01 00:00:00

Лог проверки качества

AUDIOCHECKER v2.0 beta (build 457) - by Dester - opdester@freemail.hu
~~~~~~~~~~~~~~~~~~~~~~~~~~~~~~~~~~
-=== НЕ РЕДАКТИРУЙТЕ ЭТОТ ФАЙЛ! ===-
Путь: ...\Лик домер - К 120-летию со дня рождения С.Прокофьева
01 -=- 01 О.Некрасов Плотогони з сюїти ''Гуцульські гобелени'' Лик домер.flac -=- MPEG (97%)
02 -=- 02 О.Скрипник Піано-форте Лик домер.flac -=- MPEG (97%)
03 -=- 03 С.Мамонов ''Присвячення Прокоф'єву''. Квазі миттєвість Лик домер.flac -=- CDDA (94%)
04 -=- 04 С.Мамонов Скерцо Лик домер.flac -=- MPEG (100%)
05 -=- 05 Сергій Прокоф'єв ''Чотири миттєвості''. №3 Лик домер.flac -=- MPEG (100%)
06 -=- 06 Сергій Прокоф'єв №14 Лик домер.flac -=- MPEG (100%)
07 -=- 07 Сергій Прокоф'єв №10 Лик домер.flac -=- CDDA (92%)
08 -=- 08 Сергій Прокоф'єв №15 Лик домер.flac -=- CDDA (43%)
09 -=- 09 Євген Мілка ''Українська сюїта''. 3 ч. - ''Веснянка'' Лик домер.flac -=- CDDA (58%)
10 -=- 10 Євген Мілка 4 ч. - ''Молодечі жарти'' Лик домер.flac -=- MPEG (97%)
11 -=- 11 Євген Мілка ''Червона каліна'' з циклу ''Польський віночок'' Лик домер.flac -=- CDDA (54%)
12 -=- 12 Є.Петриченко Коло Лик домер.flac -=- MPEG (93%)
13 -=- 13 В.Івко ''Українська сюїта''. Пісня Лик домер.flac -=- MPEG (100%)
14 -=- 14 В.Івко Вариації на тему лемківської народної пісні Лик домер.flac -=- MPEG (100%)
15 -=- 15 В.Івко Андантіно Лик домер.flac -=- MPEG (93%)
16 -=- 16 В.Івко Щедрівка Лик домер.flac -=- MPEG (100%)
17 -=- 17 В.Івко Фінал Симфонії-концерту Лик домер.flac -=- MPEG (100%)
18 -=- 18 Ж.Ібер Маленький білій ослик Лик домер.flac -=- CDDA (54%)
19 -=- 19 С.Джоплін Рег персика Лик домер.flac -=- MPEG (100%)
20 -=- 20 Дж.Шенбергер Пошепки Лик домер.flac -=- CDDA (86%)
Сводка 25,20% CDDA
73252196



Показать сообщения:    

Текущее время: 03-Дек 14:39

Часовой пояс: UTC + 3


Вы не можете начинать темы
Вы не можете отвечать на сообщения
Вы не можете редактировать свои сообщения
Вы не можете удалять свои сообщения
Вы не можете голосовать в опросах
Вы не можете прикреплять файлы к сообщениям
Вы не можете скачивать файлы