Крымская фабрика грёз (Марианна Поздирка, Всеволод Тарасов) [2014, документальный, SATRip]


Статистика раздачи [Обновить пиров]
Размер:  516 MB   |    Зарегистрирован:  8 месяцев 18 дней   |    Скачан:  0 раз

Полного источника не было: Никогда

Личеров:  4  [  0 KB/s  ]   Подробная статистика пиров
 
   
 
 
 

[Цитировать]

Крымская фабрика грёз
Дата/Год выпуска: 2014
Страна: Россия
Жанр: документальный
Продолжительность: 00:44:01
Перевод: Не требуется
Русские субтитры: нет
Оригинальная аудиодорожка: русский
Автор сценария: Марианна Поздирка
Режиссёр: Всеволод Тарасов
Телеканал: Россия 1
Автор рипа: Человек91
Описание: Крым - уникальное место. Сегодня сюда съезжаются кинематографисты со всего мира, а для Ялтинской киностудии началась новая страница истории..
качество: SATRip
формат: AVI
Видео: XVID, MPEG-4 Visual, 704x400, (16:9), ~1500 kbps, 25 fps
Аудио: MP3, ~128 kbps, 48 kHz, 2 сh stereo

MediaInfo

Общее
Полное имя : Крымская фабрика грёз (2014).avi
Формат : AVI
Формат/Информация : Audio Video Interleave
Размер файла : 516 Мбайт
Продолжительность : 44 м.
Общий поток : 1637 Кбит/сек
Программа кодирования : VirtualDubMod 1.5.10.2 (build 2540/release)
Библиотека кодирования : VirtualDubMod build 2540/release
Видео
Идентификатор : 0
Формат : MPEG-4 Visual
Профиль формата : Advanced Simple@L5
Параметр BVOP формата : 1
Параметр QPel формата : Нет
Параметр GMC формата : Без точки перехода
Параметр матрицы формата : Default (H.263)
Идентификатор кодека : XVID
Идентификатор кодека/Подсказка : XviD
Продолжительность : 44 м.
Битрейт : 1499 Кбит/сек
Ширина : 704 пикселя
Высота : 400 пикселей
Соотношение сторон : 16:9
Частота кадров : 25,000 кадров/сек
Цветовое пространство : YUV
Субдискретизация насыщенности : 4:2:0
Битовая глубина : 8 бит
Тип развёртки : Прогрессивная
Метод сжатия : С потерями
Бит/(Пиксели*Кадры) : 0.213
Размер потока : 473 Мбайт (92%)
Библиотека кодирования : XviD 1.2.1 (UTC 2008-12-04)
Аудио
Идентификатор : 1
Формат : MPEG Audio
Версия формата : Version 1
Профиль формата : Layer 3
Идентификатор кодека : 55
Идентификатор кодека/Подсказка : MP3
Продолжительность : 44 м.
Вид битрейта : Постоянный
Битрейт : 128 Кбит/сек
Каналы : 2 канала
Частота : 48,0 КГц
Метод сжатия : С потерями
Размер потока : 40,4 Мбайт (8%)
Выравнивание : Соединение по промежуткам
Продолжительность промежутка : 40 мс. (1,00 видеокадр)
Время предзагрузки промежутка : 504 мс.
Библиотека кодирования : LAME3.98r
Настройки программы : -m s -V 4 -q 2 -lowpass 17 -b 128

Скринлист

Скриншоты

[teatrix.ru].t19043.torrent 
Торрент: Зарегистрирован [ 2016-03-18 12:44 ] · 64B2054308E1BC75B3863DA3B84F2E83E40E58A5

Скачать .torrent

Скачать

11 KB

Статус: проверено
Скачан: 0 раз
Размер: 516 MB
terms.php



Показать сообщения:    

Текущее время: 05-Дек 13:33

Часовой пояс: UTC + 3


Вы не можете начинать темы
Вы не можете отвечать на сообщения
Вы не можете редактировать свои сообщения
Вы не можете удалять свои сообщения
Вы не можете голосовать в опросах
Вы не можете прикреплять файлы к сообщениям
Вы можете скачивать файлы