Валерий Золотухин: В свободное от работы время (Юрий Сааков) [1989, фильм-концерт, DVB]


Статистика раздачи [Обновить пиров]
Размер:  439 MB   |    Зарегистрирован:  8 месяцев 20 дней   |    Скачан:  0 раз

Полного источника не было: Никогда

Личеров:  3  [  0 KB/s  ]   Подробная статистика пиров
 
   
 
 
 

[Цитировать]

Валерий Золотухин
В свободное от работы время- Дата/Год выпуска: 1989
Страна: СССР
Жанр: фильм-концерт
Продолжительность: 00:29:59
Перевод: Не требуется
Русские субтитры: нет
Режиссер: Юрий Сааков
Телеканал: НостальгияОписание: Фильм-концерт рассказывает о творчестве актера Московского академического театра драмы и комедии на Таганке Валерия Золотухина. В свободное от работы время — вечерами, после спектаклей, ночами, в перерывах между репетициями — он записывает песни. Помогают ему в этом Юрий Любимов и артисты театра на Таганке. В программе - песни А.Зацепина, В.Высоцкого, Н.Каретникова, С.Сапожникова, А.Шнитке, С.Слонимского в исполнении актера. В фильм включены репетиции запрещенного впоследствии спектакля "Живой" по повести Б.Можаева, проводимые Ю.Любимовым.
Треклист:
01. Танго Остапа Бендера (муз. А.Зацепина, сл. Л.Дербенева)
02. Полоса нейтральная (В.Высоцкий)
03. Это было у моря (муз. Н.Каретникова, стихи Игоря Северянина) – из репертуара Александра Вертинского
04. Так как барышом с начальством он делился… (муз. С.Слонимского)
05. Шут (муз. Дм.Шостаковича, стихи У.Шекспира) - к спектаклю Г.Козинцева "Король Лир" (1940)
06. Разговор со счастьем (Вдруг как в сказке скрипнула дверь) (муз. А.Зацепина, сл. Л.Дербенева)
07. Где ваша могила (Песня о Мейерхольде) (муз. Альфреда Шнитке, сл. Андрея Вознесенского)
08. Песня про мастеров (Горшки обжигают не боги) (муз. В.Рагимова, сл. С.Сапожникова)
Доп. информация: DVB-S

качество: DVB
формат: MKV
Видео: MPEG Video 2, 720x576@768x576 (4:3), 25 fps, ~1816 kbps avg, 0.175 bit/pixel
Аудио: MPEG Audio 2, 2 ch, 48 kHz, ~192.00 kbps avg

MediaInfo

Общее
Уникальный идентификатор : 177093761131724316680144444531192950499 (0x853B048B722348A9B784723CE6A0EEE3)
Полное имя : E:\My Torrents 2\[apreder]Valeri_Zolotukhin(1989)DVB.mkv
Формат : Matroska
Версия формата : Version 2
Размер файла : 439 Мбайт
Продолжительность : 29 м.
Режим общего битрейта : Переменный
Общий поток : 2049 Кбит/сек
Дата кодирования : UTC 2014-09-01 14:23:56
Программа кодирования : mkvmerge v7.1.0 ('Good Love') 64bit built on Jul 27 2014 13:06:55
Библиотека кодирования : libebml v1.3.0 + libmatroska v1.4.1
Видео
Идентификатор : 1
Формат : MPEG Video
Версия формата : Version 2
Профиль формата : Main@Main
Параметр BVOP формата : Нет
Параметр матрицы формата : Выборочная
Идентификатор кодека : V_MPEG2
Идентификатор кодека/Информация : MPEG 1 or 2 Video
Продолжительность : 29 м.
Вид битрейта : Переменный
Битрейт : 1816 Кбит/сек
Максимальный битрейт : 3634 Кбит/сек
Ширина : 720 пикселей
Высота : 576 пикселей
Соотношение сторон : 4:3
Режим частоты кадров : Постоянный
Частота кадров : 25,000 кадров/сек
Стандарт вещания : PAL
Цветовое пространство : YUV
Субдискретизация насыщенности : 4:2:0
Битовая глубина : 8 бит
Тип развёртки : Чересстрочная
Порядок развёртки : Верхнее поле первое
Метод сжатия : С потерями
Бит/(Пиксели*Кадры) : 0.175
Временной код первого кадра : 00:00:00:00
Оригинал временного кода : Group of pictures header
Размер потока : 390 Мбайт (89%)
Default : Да
Forced : Нет
Аудио
Идентификатор : 2
Формат : MPEG Audio
Версия формата : Version 1
Профиль формата : Layer 2
Идентификатор кодека : A_MPEG/L2
Идентификатор кодека/Подсказка : MP2
Продолжительность : 29 м.
Вид битрейта : Постоянный
Битрейт : 192 Кбит/сек
Каналы : 2 канала
Частота : 48,0 КГц
Метод сжатия : С потерями
Размер потока : 41,2 Мбайт (9%)
Язык : Russian
Default : Да
Forced : Нет

Скриншоты

Резервные скриншоты

-[1'686]
[teatrix.ru].t19046.torrent 
Торрент: Зарегистрирован [ 2016-03-18 12:43 ] · E065F8069A0BD6AA7055622735081AE313C8FA15

Скачать .torrent

Скачать

18 KB

Статус: проверено
Скачан: 0 раз
Размер: 439 MB
terms.php



Быстрый ответ

Имя:

      
Для отправки сообщений необходимо включить JavaScript
Показать сообщения:    

Текущее время: 07-Дек 13:39

Часовой пояс: UTC + 3


Вы можете начинать темы
Вы можете отвечать на сообщения
Вы не можете редактировать свои сообщения
Вы не можете удалять свои сообщения
Вы не можете голосовать в опросах
Вы не можете прикреплять файлы к сообщениям
Вы можете скачивать файлы