(Vocal) Hanns Eisler - Lieder und Kantaten im Exil (Roswitha Trexler - soprano) - 1996, FLAC (image+.cue) lossless


 

[Цитировать]

HANNS EISLER
Lieder und Kantaten im Exil
- Жанр: Vocal
Страна-производитель диска: Germany
Год издания диска: 1996
Издатель (лейбл): Berlin Classics
Дата записи: 1971/77
Аудиокодек: FLAC
Тип рипа: image+.cue
Битрейт аудио: lossless
Продолжительность: 2:10'51''
Источник: собственный рип
Наличие сканов в содержимом раздачи: да
Треклист:

CD1

Lieder I
Zwei Elegien:
[1] 1. In die Städte kam ich
[2] 2. Ihr, die ihr auftauchen werdet
[3] Der Pflaumenbaum:
Über die Dauer des Exils:
[4] 1. Schlage keinen Nagel in die Wand
[5] 2. Sieh den Nagel an der Wand
[6] Zufluchtstätte
[7] Elegie
[8] Spruch
[9] Shakespeares Sonett Nr. 66: Tired with all these
[10] Der Zweck der Musik
[11] An den Schlaf
[12] Spanisches Liedchen
[13] Lied einer deutschen Mutter
[14] Der Räuber und sein Knecht
Kantaten im Exil
[15] Man lebt von einem Tag zum anderen
Die Römische Kantate:
[16] 1. Das grosse Rom
[17] 2. Der Gestank
[18] 3. Woher kommt es
[19] 4. Die Angst
[20] Die Gott-sei-bei-uns- Kantate
[21] Kantate im Exil Nr. 2
[22] Die den Mund auf hatten
[23] Bettellied
Die Weissbrotkantate:
[24] 1. Bei der Betrachtung eines kirchlichen Gemäldes
[25] 2. Die wahre Geschichte von San Berardo
[26] 3. Abschliessenste Bemerkung
[27] Kriegskantate
[28] Die Zuchthauskantate
Kantate auf den Tod eines Genossen:
[29] 1. Die Nachricht
[30] 2. Die Verhaftung
[31] 3. Die Ermordung
[32] 4. Der Nachruhm
Sonette
[33] Sonett über Goethes Gedicht »Der Gott und die Bajadere«
[34] Sonett über Schillers Gedicht »Die Burgschaft«
Jutta Czapski - piano [1-12]
Instrumentalsolisten [13-32]

Лог создания рипа

Exact Audio Copy V1.0 beta 3 from 29. August 2011
EAC extraction logfile from 16. February 2014, 22:51
Hanns Eisler / Hanns Eisler - Lieder und Kantaten im Exil CD 1
Used drive : COMPAQ CD-ROM LTN403 Adapter: 0 ID: 0
Read mode : Secure
Utilize accurate stream : Yes
Defeat audio cache : Yes
Make use of C2 pointers : No
Read offset correction : -1164
Overread into Lead-In and Lead-Out : No
Fill up missing offset samples with silence : Yes
Delete leading and trailing silent blocks : No
Null samples used in CRC calculations : Yes
Used interface : Native Win32 interface for Win NT & 2000
Used output format : User Defined Encoder
Selected bitrate : 1024 kBit/s
Quality : High
Add ID3 tag : No
Command line compressor : C:\Program Files\FLAC\flac.exe
Additional command line options : -T"COMMENT=rip by el coronel" -8 -V %source%
TOC of the extracted CD
Track | Start | Length | Start sector | End sector
---------------------------------------------------------
1 | 0:00.00 | 2:23.10 | 0 | 10734
2 | 2:23.10 | 1:59.25 | 10735 | 19684
3 | 4:22.35 | 0:59.37 | 19685 | 24146
4 | 5:21.72 | 1:39.00 | 24147 | 31571
5 | 7:00.72 | 1:08.08 | 31572 | 36679
6 | 8:09.05 | 1:07.57 | 36680 | 41761
7 | 9:16.62 | 2:41.65 | 41762 | 53901
8 | 11:58.52 | 1:21.53 | 53902 | 60029
9 | 13:20.30 | 2:45.30 | 60030 | 72434
10 | 16:05.60 | 1:03.07 | 72435 | 77166
11 | 17:08.67 | 1:02.00 | 77167 | 81816
12 | 18:10.67 | 1:08.20 | 81817 | 86936
13 | 19:19.12 | 1:29.58 | 86937 | 93669
14 | 20:48.70 | 1:44.32 | 93670 | 101501
15 | 22:33.27 | 4:06.63 | 101502 | 120014
16 | 26:40.15 | 1:53.10 | 120015 | 128499
17 | 28:33.25 | 1:20.37 | 128500 | 134536
18 | 29:53.62 | 2:09.45 | 134537 | 144256
19 | 32:03.32 | 1:30.03 | 144257 | 151009
20 | 33:33.35 | 4:53.45 | 151010 | 173029
21 | 38:27.05 | 3:11.35 | 173030 | 187389
22 | 41:38.40 | 2:43.40 | 187390 | 199654
23 | 44:22.05 | 1:19.52 | 199655 | 205631
24 | 45:41.57 | 2:42.00 | 205632 | 217781
25 | 48:23.57 | 2:41.40 | 217782 | 229896
26 | 51:05.22 | 1:14.68 | 229897 | 235514
27 | 52:20.15 | 4:10.40 | 235515 | 254304
28 | 56:30.55 | 4:01.47 | 254305 | 272426
29 | 60:32.27 | 1:29.05 | 272427 | 279106
30 | 62:01.32 | 0:40.10 | 279107 | 282116
31 | 62:41.42 | 0:59.63 | 282117 | 286604
32 | 63:41.30 | 1:09.02 | 286605 | 291781
33 | 64:50.32 | 2:02.03 | 291782 | 300934
34 | 66:52.35 | 2:11.45 | 300935 | 310804
Range status and errors
Selected range
Filename D:\Hanns Eisler - Lieder und Kantaten im Exil CD 1.wav
Peak level 99.7 %
Extraction speed 3.0 X
Range quality 100.0 %
Test CRC E7464959
Copy CRC E7464959
Copy OK
No errors occurred
End of status report
==== Log checksum 1C3D0829E7B67722BC2B6FE2A9E102D3DA891479DE14D51FE89CF3764FA4E39E ====

Содержание индексной карты (.CUE)

REM GENRE Lieder
REM DATE 1996
REM DISCID BA103022
REM COMMENT ExactAudioCopy v1.0b3
PERFORMER "Max Pommer - Rundfunk-Jugendchor Leipzig, R.Trexler - sopr., Jutta Czapski - ..."
TITLE "Hanns Eisler - Lieder und Kantaten im Exil CD 1"
FILE "Hanns Eisler - Lieder und Kantaten im Exil CD 1.flac" WAVE
TRACK 01 AUDIO
TITLE "Zwei Elegien: 1. In die Stadte kam ich"
PERFORMER "R.Traxler, J.Czapski"
INDEX 01 00:00:00
TRACK 02 AUDIO
TITLE "2. Ihr, die ihr auftauchen werdet"
PERFORMER "R.Traxler, J.Czapski"
INDEX 01 02:23:10
TRACK 03 AUDIO
TITLE "Der Pflaumenbaum"
PERFORMER "R.Traxler, J.Czapski"
INDEX 01 04:22:35
TRACK 04 AUDIO
TITLE "Uber die Dauer des Exils: 1. Schlage keinen Nagel in die Wand"
PERFORMER "R.Traxler, J.Czapski"
INDEX 01 05:21:72
TRACK 05 AUDIO
TITLE "2. Sieh den Nagel an der Wand"
PERFORMER "R.Traxler, J.Czapski"
INDEX 01 07:00:72
TRACK 06 AUDIO
TITLE "Zufluchtsstatte"
PERFORMER "R.Traxler, J.Czapski"
INDEX 01 08:09:05
TRACK 07 AUDIO
TITLE "Elegie"
PERFORMER "R.Traxler, J.Czapski"
INDEX 01 09:16:62
TRACK 08 AUDIO
TITLE "Spruch"
PERFORMER "R.Traxler, J.Czapski"
INDEX 01 11:58:52
TRACK 09 AUDIO
TITLE "Shakespeares Sonett Nr. 66"
PERFORMER "R.Traxler, J.Czapski"
INDEX 01 13:20:30
TRACK 10 AUDIO
TITLE "Der Zweck der Musik"
PERFORMER "R.Traxler, J.Czapski"
INDEX 01 16:05:60
TRACK 11 AUDIO
TITLE "An den Schlaf"
PERFORMER "R.Traxler, J.Czapski"
INDEX 01 17:08:67
TRACK 12 AUDIO
TITLE "Spanisches Liedchen"
PERFORMER "R.Traxler, J.Czapski"
INDEX 01 18:10:67
TRACK 13 AUDIO
TITLE "Lied einer deutschen Mutter"
PERFORMER "R.Traxler, J.Czapski"
INDEX 01 19:19:12
TRACK 14 AUDIO
TITLE "Der Rauber und sein Knecht"
PERFORMER "R.Traxler, J.Czapski"
INDEX 01 20:48:70
TRACK 15 AUDIO
TITLE "Man lebt von einem Tag zum anderen"
PERFORMER "R.Traxler et al."
INDEX 00 22:25:30
INDEX 01 22:33:27
TRACK 16 AUDIO
TITLE "Die Romische Kantate: 1. Das grosse Rom"
PERFORMER "R.Traxler et al."
INDEX 01 26:40:15
TRACK 17 AUDIO
TITLE "2. Der Gestank"
PERFORMER "R.Traxler et al."
INDEX 01 28:33:25
TRACK 18 AUDIO
TITLE "3. Woher kommt es"
PERFORMER "R.Traxler et al."
INDEX 01 29:53:62
TRACK 19 AUDIO
TITLE "4. Die Angst"
PERFORMER "R.Traxler et al."
INDEX 01 32:03:32
TRACK 20 AUDIO
TITLE "Die Gott-sei-bei-uns- Kantate"
PERFORMER "R.Traxler et al."
INDEX 01 33:33:35
TRACK 21 AUDIO
TITLE "Kantate im Exil Nr. 2"
PERFORMER "R.Traxler et al."
INDEX 01 38:27:05
TRACK 22 AUDIO
TITLE "Die den Mund auf hatten"
PERFORMER "R.Traxler et al."
INDEX 01 41:38:40
TRACK 23 AUDIO
TITLE "Bettellied"
PERFORMER "R.Traxler et al."
INDEX 01 44:22:05
TRACK 24 AUDIO
TITLE "Die Weissbrotkantate: 1. Bei der Betrachtung eines kirchlichen Gemaldes"
PERFORMER "R.Traxler et al."
INDEX 01 45:41:57
TRACK 25 AUDIO
TITLE "2. Die wahre Geschichte von San Berardo"
PERFORMER "R.Traxler et al."
INDEX 01 48:23:57
TRACK 26 AUDIO
TITLE "3. Abschlie.enste Bemerkung"
PERFORMER "R.Traxler et al."
INDEX 01 51:05:22
TRACK 27 AUDIO
TITLE "Kriegskantate"
PERFORMER "R.Traxler et al."
INDEX 01 52:20:15
TRACK 28 AUDIO
TITLE "Die Zuchthauskantate"
PERFORMER "R.Traxler et al."
INDEX 01 56:30:55
TRACK 29 AUDIO
TITLE "Kantate auf den Tod eines Genossen: 1. Die Nachricht"
PERFORMER "R.Traxler et al."
INDEX 01 60:32:27
TRACK 30 AUDIO
TITLE "2. Die Verhaftung"
PERFORMER "R.Traxler et al."
INDEX 01 62:01:32
TRACK 31 AUDIO
TITLE "3. Die Ermordung"
PERFORMER "R.Traxler et al."
INDEX 01 62:41:42
TRACK 32 AUDIO
TITLE "4. Der Nachruhm"
PERFORMER "R.Traxler et al."
INDEX 01 63:41:30
TRACK 33 AUDIO
TITLE "Sonett uber Goethes Gedicht 'Der Gott und die Bajadere'"
PERFORMER "R.Traxler et al."
INDEX 01 64:50:32
TRACK 34 AUDIO
TITLE "Sonett uber Schillers Gedicht 'Die Burgschaft'"
PERFORMER "R.Traxler et al."
INDEX 01 66:52:35

CD2

Lieder II
Der Sohn:
[1] 1. Wenn sie Nachts lag
[2] 2. Mein junger Sohn fragt mich
[3] An den kleinen Radioapparat
[4] In den Weiden
[5] Frühling
[6] Speisekammer 1942
[7] Auf der Flucht
[8] Über den Selbstmord
[9] Die Flucht
[10] Gedenktafel für 4000 Soldaten, die im Krieg gegen Norwegen versenkt wurden
[11] Epitaph auf einen in der Flandernschlacht Gefallenen
[12] Spruch
[13] Ostersonntag
[14] Der Kirschdieb
[15] Hotelzimmer 1942
[16] Die Maske des Bösen
Zwei Lieder nach Worten von Blaise Pascal
[17] 1. Despite these miseries
[18] 2. The only thing
Aus dem »Hollywooder Liederbuch«
[19] Winterspruch
Fünf Elegien:
[20] 1. Unter den grünen Pfefferbäumen
[21] 2. Die Stadt ist nach den Engeln benannt
[22] 3. Jeden Morgen mein Brot zu verdienen
[23] 4. Diese Stadt hat mich belehrt
[24] 5. In den Hügeln wird Gold gefunden
[25] Nightmare
[26] Hollywoold-Elegie Nr. 7
[27] Die letzte Elegie
[28] Der Schatzgräber
[29] Panzerschlacht
[30] L'automne californien
Anakreontische Fragmente:
[31] 1. Geselligkeit betreffend
[32] 2. Dir auch wurde Sehrnsucht nach der Heimat tödlich
[33] 3. Die Unwürde des Alterns
[34] 4. Spater Triumph
[35] 5. In der Frühe
[36] Erinnerung an Eichendorff und Schumann
Hölderlin-Fragmente:
[37] 1. An die Hoffnung
[38] 2. Andenken
[39] 3. Elegie
[40] 4. Die Heimat
[41] 5. An eine Stadt
[42] 6. Erinnerung
[43] Der Mensch
[44] Vom Sprengen des Gartens
[45] Die Heimkehr
[46] Rimbaud-Gedicht
Lieder III
[47] In Sturmesnacht. Lied vom Juli 1942
[48] Das deutsche Miserere
[49] Es geht eine dunkle Wolk' herein
Jutta Czapski - piano

Лог создания рипа

Exact Audio Copy V1.0 beta 3 from 29. August 2011
EAC extraction logfile from 16. February 2014, 23:38
Hanns Eisler / Hanns Eisler - Lieder und Kantaten im Exil CD 2
Used drive : COMPAQ CD-ROM LTN403 Adapter: 0 ID: 0
Read mode : Secure
Utilize accurate stream : Yes
Defeat audio cache : Yes
Make use of C2 pointers : No
Read offset correction : -1164
Overread into Lead-In and Lead-Out : No
Fill up missing offset samples with silence : Yes
Delete leading and trailing silent blocks : No
Null samples used in CRC calculations : Yes
Used interface : Native Win32 interface for Win NT & 2000
Used output format : User Defined Encoder
Selected bitrate : 1024 kBit/s
Quality : High
Add ID3 tag : No
Command line compressor : C:\Program Files\FLAC\flac.exe
Additional command line options : -T"COMMENT=rip by el coronel" -8 -V %source%
TOC of the extracted CD
Track | Start | Length | Start sector | End sector
---------------------------------------------------------
1 | 0:00.00 | 1:43.32 | 0 | 7756
2 | 1:43.32 | 1:34.55 | 7757 | 14861
3 | 3:18.12 | 0:55.63 | 14862 | 19049
4 | 4:14.00 | 0:54.12 | 19050 | 23111
5 | 5:08.12 | 1:07.18 | 23112 | 28154
6 | 6:15.30 | 1:01.65 | 28155 | 32794
7 | 7:17.20 | 1:13.05 | 32795 | 38274
8 | 8:30.25 | 1:20.32 | 38275 | 44306
9 | 9:50.57 | 0:41.40 | 44307 | 47421
10 | 10:32.22 | 0:30.70 | 47422 | 49741
11 | 11:03.17 | 0:39.10 | 49742 | 52676
12 | 11:42.27 | 0:45.08 | 52677 | 56059
13 | 12:27.35 | 1:04.50 | 56060 | 60909
14 | 13:32.10 | 1:10.25 | 60910 | 66184
15 | 14:42.35 | 1:28.65 | 66185 | 72849
16 | 16:11.25 | 0:59.05 | 72850 | 77279
17 | 17:10.30 | 1:37.72 | 77280 | 84626
18 | 18:48.27 | 1:49.08 | 84627 | 92809
19 | 20:37.35 | 0:39.65 | 92810 | 95799
20 | 21:17.25 | 0:54.27 | 95800 | 99876
21 | 22:11.52 | 1:10.25 | 99877 | 105151
22 | 23:22.02 | 0:53.43 | 105152 | 109169
23 | 24:15.45 | 0:57.32 | 109170 | 113476
24 | 25:13.02 | 0:42.43 | 113477 | 116669
25 | 25:55.45 | 0:55.00 | 116670 | 120794
26 | 26:50.45 | 1:12.72 | 120795 | 126266
27 | 28:03.42 | 1:05.43 | 126267 | 131184
28 | 29:09.10 | 3:27.55 | 131185 | 146764
29 | 32:36.65 | 0:51.20 | 146765 | 150609
30 | 33:28.10 | 1:50.22 | 150610 | 158881
31 | 35:18.32 | 0:58.30 | 158882 | 163261
32 | 36:16.62 | 0:53.73 | 163262 | 167309
33 | 37:10.60 | 1:34.30 | 167310 | 174389
34 | 38:45.15 | 1:28.40 | 174390 | 181029
35 | 40:13.55 | 1:20.25 | 181030 | 187054
36 | 41:34.05 | 0:36.32 | 187055 | 189786
37 | 42:10.37 | 0:57.55 | 189787 | 194116
38 | 43:08.17 | 1:34.68 | 194117 | 201234
39 | 44:43.10 | 2:04.65 | 201235 | 210599
40 | 46:48.00 | 1:06.72 | 210600 | 215621
41 | 47:54.72 | 2:48.10 | 215622 | 228231
42 | 50:43.07 | 2:07.18 | 228232 | 237774
43 | 52:50.25 | 0:40.65 | 237775 | 240839
44 | 53:31.15 | 1:01.52 | 240840 | 245466
45 | 54:32.67 | 1:01.63 | 245467 | 250104
46 | 55:34.55 | 1:37.17 | 250105 | 257396
47 | 57:11.72 | 1:01.35 | 257397 | 262006
48 | 58:13.32 | 1:48.73 | 262007 | 270179
49 | 60:02.30 | 1:44.22 | 270180 | 278001
Range status and errors
Selected range
Filename D:\Hanns Eisler - Lieder und Kantaten im Exil CD 2.wav
Peak level 97.7 %
Extraction speed 3.0 X
Range quality 100.0 %
Test CRC A5E6FD3A
Copy CRC A5E6FD3A
Copy OK
No errors occurred
End of status report
==== Log checksum 585A9859466199EA999EEC549A21FE178A810750BB9308A4A39D3199E78FCA63 ====

Содержание индексной карты (.CUE)

REM GENRE Classical
REM DATE 1996
REM DISCID 8E0E7A31
REM COMMENT ExactAudioCopy v1.0b3
PERFORMER "R.Traxler, J.Czapski"
TITLE "Hanns Eisler - Lieder und Kantaten im Exil CD 2"
FILE "Hanns Eisler - Lieder und Kantaten im Exil CD 2.flac" WAVE
TRACK 01 AUDIO
TITLE "Der Sohn - 1. Wenn sie Nachts lag"
INDEX 01 00:00:00
TRACK 02 AUDIO
TITLE "2. Mein junger Sohn fragt mich"
INDEX 01 01:43:32
TRACK 03 AUDIO
TITLE "An den kleinen Radioapparat"
INDEX 01 03:18:12
TRACK 04 AUDIO
TITLE "In den Weiden"
INDEX 01 04:14:00
TRACK 05 AUDIO
TITLE "Fruhling"
INDEX 01 05:08:12
TRACK 06 AUDIO
TITLE "Speisekammer 1942"
INDEX 01 06:15:30
TRACK 07 AUDIO
TITLE "Auf der Flucht"
INDEX 01 07:17:20
TRACK 08 AUDIO
TITLE "Uber den Selbstmord"
INDEX 01 08:30:25
TRACK 09 AUDIO
TITLE "Die Flucht"
INDEX 01 09:50:57
TRACK 10 AUDIO
TITLE "Gedenktafel fur 4000 Soldaten, die im Krieg gegen Norwegen versenkt wurden"
INDEX 01 10:32:22
TRACK 11 AUDIO
TITLE "Epitaph auf einen in der Flandernschlacht Gefallenen"
INDEX 01 11:03:17
TRACK 12 AUDIO
TITLE "Spruch"
INDEX 01 11:42:27
TRACK 13 AUDIO
TITLE "Ostersonntag"
INDEX 01 12:27:35
TRACK 14 AUDIO
TITLE "Der Kirschdieb"
INDEX 01 13:32:10
TRACK 15 AUDIO
TITLE "Hotelzimmer 1942"
INDEX 01 14:42:35
TRACK 16 AUDIO
TITLE "Die Maske des Bosen"
INDEX 01 16:11:25
TRACK 17 AUDIO
TITLE "Zwei Lieder nach Worten von Blaise Pascal - 1. Despite these miseries"
INDEX 01 17:10:30
TRACK 18 AUDIO
TITLE "2. The only thing"
INDEX 01 18:48:27
TRACK 19 AUDIO
TITLE "Winterspruch"
INDEX 01 20:37:35
TRACK 20 AUDIO
TITLE "Funf Elegien - 1. Unter den gro.en Pfefferbaumen"
INDEX 01 21:17:25
TRACK 21 AUDIO
TITLE "2. Die Stadt ist nach den Engeln benannt"
INDEX 01 22:11:52
TRACK 22 AUDIO
TITLE "3. Jeden Morgen mein Brot zu verdienen"
INDEX 01 23:22:02
TRACK 23 AUDIO
TITLE "4. Diese Stadt hat mich belehrt"
INDEX 01 24:15:45
TRACK 24 AUDIO
TITLE "5. In den Hugeln wird Gold gefunden"
INDEX 01 25:13:02
TRACK 25 AUDIO
TITLE "Nightmare"
INDEX 01 25:55:45
TRACK 26 AUDIO
TITLE "Hollywoold-Elegie Nr. 7"
INDEX 01 26:50:45
TRACK 27 AUDIO
TITLE "Die letzte Elegie "
INDEX 01 28:03:42
TRACK 28 AUDIO
TITLE "Der Schatzgraber"
INDEX 01 29:09:10
TRACK 29 AUDIO
TITLE "Panzerschlacht"
INDEX 01 32:36:65
TRACK 30 AUDIO
TITLE "L'automne californien"
INDEX 01 33:28:10
TRACK 31 AUDIO
TITLE "Anakreontische Fragmente - 1. Geselligkeit betreffend"
INDEX 01 35:18:32
TRACK 32 AUDIO
TITLE "2. Dir auch wurde Sehrnsucht nach der Heimat todlich"
INDEX 01 36:16:62
TRACK 33 AUDIO
TITLE "3. Die Unwurde des Alterns "
INDEX 01 37:10:60
TRACK 34 AUDIO
TITLE "4. Spater Triumph"
INDEX 01 38:45:15
TRACK 35 AUDIO
TITLE "5. In der Fruhe"
INDEX 01 40:13:55
TRACK 36 AUDIO
TITLE "Erinnerung an Eichendorff und Schumann"
INDEX 01 41:34:05
TRACK 37 AUDIO
TITLE "Holderlin-Fragmente 1. An die Hoffnung"
INDEX 01 42:10:37
TRACK 38 AUDIO
TITLE "2. Andenken"
INDEX 01 43:08:17
TRACK 39 AUDIO
TITLE "3. Elegie"
INDEX 01 44:43:10
TRACK 40 AUDIO
TITLE "4. Die Heimat"
INDEX 01 46:48:00
TRACK 41 AUDIO
TITLE "5. An eine Stadt"
INDEX 01 47:54:72
TRACK 42 AUDIO
TITLE "6. Erinnerung"
INDEX 01 50:43:07
TRACK 43 AUDIO
TITLE "Der Mensch"
INDEX 01 52:50:25
TRACK 44 AUDIO
TITLE "Vom Sprengen des Gartens"
INDEX 01 53:31:15
TRACK 45 AUDIO
TITLE "Die Heimkehr"
INDEX 01 54:32:67
TRACK 46 AUDIO
TITLE "Rimbaud-Gedicht"
INDEX 01 55:34:55
TRACK 47 AUDIO
TITLE "In Sturmesnacht. Lied vom Juli 1932"
INDEX 01 57:11:72
TRACK 48 AUDIO
TITLE "Das deutsche Miserere"
INDEX 01 58:13:32
TRACK 49 AUDIO
TITLE "Es geht eine dunkle Wolk herein"
INDEX 01 60:02:30
Исполнители:
Roswitha Trexler - soprano-



Показать сообщения:    

Текущее время: 10-Дек 02:15

Часовой пояс: UTC + 3


Вы не можете начинать темы
Вы не можете отвечать на сообщения
Вы не можете редактировать свои сообщения
Вы не можете удалять свои сообщения
Вы не можете голосовать в опросах
Вы не можете прикреплять файлы к сообщениям
Вы не можете скачивать файлы