Лолита в программе «Стол заказов» на RU.TV (01.09.2014) [2014 г., Ток-Шоу, DVB]


Статистика раздачи [Обновить пиров]
Размер:  431 MB   |    Зарегистрирован:  8 месяцев 20 дней   |    Скачан:  0 раз

Полного источника не было: Никогда

Личеров:  3  [  0 KB/s  ]   Подробная статистика пиров
 
   
 
 
 

[Цитировать]

Лолита в программе «Стол заказов» на RU.TV (01.09.2014)
Страна: Россия
Жанр: Ток-Шоу
Продолжительность: 00:18:37
Язык: Русский
Год выпуска: 2014 г.
Выпущено: Россия, Телеканал "RU.TV".
Описание: Лолита Милявская стала гостьей программы "Стол заказов". Ведущая - Нелли Ермолаева задала множество вопросов по поводу нового клипа певицы, а так же вопросы от телезрителей. Так же в эфире состоялась премьера клипа "На скотч", специально от Лолиты для зрителей RU.TV.
Эфир от 01.09.2014
Сэмпл: https://yadi.sk/i/RvkIaj5gaq7B5
Источник: Собственный рип
Доп. информация: Рип чистый. Без посторонних надписей. Выкладывается как есть.

Качество: DVB
Контейнер: MPEG-PS
Видео кодек: MPEG2
Аудио кодек: MPEG1
Видео: MPEG2 720x576 (4:3) 25.000fps 2 978 Kbps, 0.287 bit/pixel
Аудио: MPEG1 48000Hz stereo 192 Кбит/сек

Скриншоты

MediaInfo

Общее
Полное имя : F:\Раздачи\Лолита\Лолита в программе «Стол заказов» на RU.TV (2014, DVB, 01.09.2014) .mpg
Формат : MPEG-PS
Размер файла : 431 Мбайт
Продолжительность : 18 м.
Режим общего битрейта : Переменный
Общий поток : 3234 Кбит/сек
Видео
Идентификатор : 224 (0xE0)
Формат : MPEG Video
Версия формата : Version 2
Профиль формата : Main@Main
Параметр BVOP формата : Нет
Параметр матрицы формата : По умолчанию
Параметр GOP формата : N=12
Продолжительность : 18 м.
Вид битрейта : Переменный
Битрейт : 2978 Кбит/сек
Максимальный битрейт : 9000 Кбит/сек
Ширина : 720 пикселей
Высота : 576 пикселей
Соотношение сторон : 4:3
Частота кадров : 25,000 кадров/сек
Стандарт вещания : PAL
Цветовое пространство : YUV
Субдискретизация насыщенности : 4:2:0
Битовая глубина : 8 бит
Тип развёртки : Прогрессивная
Метод сжатия : С потерями
Бит/(Пиксели*Кадры) : 0.287
Временной код первого кадра : 00:00:00:00
Оригинал временного кода : Group of pictures header
Размер потока : 397 Мбайт (92%)
Аудио
Идентификатор : 192 (0xC0)
Формат : MPEG Audio
Версия формата : Version 1
Профиль формата : Layer 2
Продолжительность : 18 м.
Вид битрейта : Постоянный
Битрейт : 192 Кбит/сек
Каналы : 2 канала
Частота : 48,0 КГц
Метод сжатия : С потерями
Размер потока : 25,6 Мбайт (6%)

[teatrix.ru].t19050.torrent 
Торрент: Зарегистрирован [ 2016-03-18 12:43 ] · 3F26064B3FC4B2E2E87A5076AFA9F2C523D739A0

Скачать .torrent

Скачать

17 KB

Статус: проверено
Скачан: 0 раз
Размер: 431 MB
terms.php



Быстрый ответ

Имя:

      
Для отправки сообщений необходимо включить JavaScript
Показать сообщения:    

Текущее время: 07-Дек 17:31

Часовой пояс: UTC + 3


Вы можете начинать темы
Вы можете отвечать на сообщения
Вы не можете редактировать свои сообщения
Вы не можете удалять свои сообщения
Вы не можете голосовать в опросах
Вы не можете прикреплять файлы к сообщениям
Вы можете скачивать файлы